Вы используете незарегистрированную версию компонента "Вкладки"!

Поиск

1963 Eddie Harris - For Birds and Bags {Fuzzy Lemons} [24-96]

1963 Eddie Harris - For Birds and Bags {Fuzzy Lemons} [24-96]
Битрейт аудио:
lossless
Доп. инфо:

Формат записи/Источник записи: [TR24][OF]
Издание: Remastered
Год издания/переиздания диска: 1963/2020
Издатель (лейбл): FUZZY LEMONS ENTERTAINMENT GROUP LTD
Продолжительность: 00:40:15
Наличие сканов в содержимом раздачи: Нет
Контейнер: FLAC (*.flac)
Тип рипа: tracks
Разрядность: 24/96
Количество каналов: 2.0

Источник (релизер): Qobuz

Лог проверки качества
foobar2000 1.4.3 / Dynamic Range Meter 1.1.1
log date: 2020-05-06 11:09:39

--------------------------------------------------------------------------------
Analyzed: Eddie Harris / For Birds and Bags
--------------------------------------------------------------------------------

DR         Peak         RMS     Duration Track
--------------------------------------------------------------------------------
DR12      -0.74 dB   -15.73 dB      8:41 01-Salute To Bird
DR12      -0.14 dB   -15.09 dB      5:34 02-I'm As Happy As I Want To Be
DR11      -0.70 dB   -15.28 dB      4:57 03-The River Nile
DR12      -1.14 dB   -17.72 dB      9:54 04-Salute To Bags
DR11      -0.45 dB   -13.62 dB      2:46 05-Samba De Orfeu
DR11      -1.43 dB   -15.51 dB      3:39 06-Only The Lonely
DR11       0.00 dB   -13.76 dB      4:46 07-Checkmate
--------------------------------------------------------------------------------

Number of tracks:  7
Official DR value: DR12

Samplerate:        96000 Hz
Channels:          2
Bits per sample:   24
Bitrate:           2795 kbps
Codec:             FLAC
================================================================================
Any questions - support@pro-jazz.com. Есть вопросы - support@pro-jazz.com
11:17
213
Нет комментариев. Ваш будет первым!