Вы используете незарегистрированную версию компонента "Вкладки"!

Поиск

2020 VA - HDtracks Hi-Res Sampler {2xHD, Chesky, Reference, In-Akustik} [24-96]

2020 VA - HDtracks Hi-Res Sampler {2xHD, Chesky, Reference, In-Akustik} [24-96]
Издатель (лейбл):
Битрейт аудио:
lossless
Доп. инфо:

Формат записи/Источник записи: [TR24][OF]
Наличие водяных знаков: Нет
Издание: Sampler
Год издания/переиздания диска: 2020
Жанр: Jazz, Classical, Pop, Folk, Rock
Издатель (лейбл): 2xHD; Acoustic Disc; Chesky Records; Craft Recordings; Crows Feet Records; evosound; In-Akustik; Pentatone; Reference Recordings; Stockfisch-Records
Продолжительность: 1:21:55
Наличие сканов в содержимом раздачи: Буклет PDF

Контейнер: FLAC (*.flac)
Тип рипа: tracks
Разрядность: 24/96
Формат: PCM
Количество каналов: 2.0
Другие дорожки звука: Есть 88/24 и 44,1/24

Источник (релизер): https://www.hdtracks.com/#/album/5e3a2cddf16d7d09b9855526

Лог проверки качества
foobar2000 1.5.3 / Dynamic Range Meter 1.1.1
log date: 2020-05-12 17:35:52

--------------------------------------------------------------------------------
Analyzed: Chris Jones / Hdtracks 2020 Hi-Res Sampler (1)
          Jack Broadbent / Hdtracks 2020 Hi-Res Sampler (2-3)
--------------------------------------------------------------------------------

DR         Peak         RMS     Duration Track
--------------------------------------------------------------------------------
DR8       -0.51 dB    -9.98 dB      3:46 09-No Sanctuary Here
DR6        0.00 dB    -7.98 dB      2:49 15-Wishing Well
DR7       -3.10 dB   -11.82 dB      3:21 16-Everytime I Drown
--------------------------------------------------------------------------------

Number of tracks:  3
Official DR value: DR7

Samplerate:        44100 Hz
Channels:          2
Bits per sample:   24
Bitrate:           1288 kbps
Codec:             FLAC
================================================================================

--------------------------------------------------------------------------------
Analyzed: Bob James / Hdtracks 2020 Hi-Res Sampler (1)
          Doug MacLeod / Hdtracks 2020 Hi-Res Sampler (2)
          Jan Kraybill / Hdtracks 2020 Hi-Res Sampler (3)
--------------------------------------------------------------------------------

DR         Peak         RMS     Duration Track
--------------------------------------------------------------------------------
DR13      -0.59 dB   -15.89 dB      5:07 02-Topside
DR15      -1.69 dB   -21.62 dB      4:07 05-Break The Chain
DR16     -10.33 dB   -31.20 dB      5:19 13-Funeral March of a Marionette
--------------------------------------------------------------------------------

Number of tracks:  3
Official DR value: DR15

Samplerate:        88200 Hz
Channels:          2
Bits per sample:   24
Bitrate:           2292 kbps
Codec:             FLAC
================================================================================

--------------------------------------------------------------------------------
Analyzed: Anna Nalick / Hdtracks 2020 Hi-Res Sampler (1)
          Blues Company / Hdtracks 2020 Hi-Res Sampler (2)
          Chantal Chamberland / Hdtracks 2020 Hi-Res Sampler (3)
          Chet Baker / Hdtracks 2020 Hi-Res Sampler (4)
          Chlara / Hdtracks 2020 Hi-Res Sampler (5)
          David Grisman Quintet / Hdtracks 2020 Hi-Res Sampler (6)
          David Grisman / Hdtracks 2020 Hi-Res Sampler (7)
          Diana Panton / Hdtracks 2020 Hi-Res Sampler (8)
          Mikhail Pletnev / Hdtracks 2020 Hi-Res Sampler (9)
          Robert Len / Hdtracks 2020 Hi-Res Sampler (10)
--------------------------------------------------------------------------------

DR         Peak         RMS     Duration Track
--------------------------------------------------------------------------------
DR12      -0.30 dB   -16.79 dB      4:06 04-As Time Draws Near
DR7       -0.50 dB    -9.40 dB      5:22 11-Silent Night (HiRes Bonus Track)
DR12      -0.40 dB   -14.86 dB      4:58 08-I Put a Spell On You
DR11      -0.29 dB   -13.76 dB      5:52 01-Solar
DR9       -0.70 dB   -11.67 dB      4:06 06-You Really Shouldn't Have
DR14      -0.46 dB   -17.86 dB      6:33 03-Tracy's Tune
DR14      -0.15 dB   -18.53 dB     12:34 07-Pupville
DR10      -1.94 dB   -13.46 dB      1:55 14-The Telephone Song (Telefone)
DR15      -2.96 dB   -23.08 dB      7:57 12-Symphony No. 1 in E Major, Op. 26: V. Allegro
DR11      -0.81 dB   -14.74 dB      4:03 10-When We Dance
--------------------------------------------------------------------------------

Number of tracks:  10
Official DR value: DR11

Samplerate:        96000 Hz
Channels:          2
Bits per sample:   24
Bitrate:           2757 kbps
Codec:             FLAC
================================================================================
Any questions - support@pro-jazz.com. Есть вопросы - support@pro-jazz.com
23:19
533
Нет комментариев. Ваш будет первым!