Поиск

1950-1963 June Christy - June Sings The Standards (2019) {RevOla} [24-44,1]

1950-1963 June Christy - June Sings The Standards (2019) {RevOla} [24-44,1]
Стили:
Издатель (лейбл):
Битрейт аудио:
lossless
Треклист:

01 - For All We Know 02:48
02 - Do Nothin' Till You Hear From Me 04:06
03 - They Can't Take That Away From Me 02:41
04 - It Don't Mean A Thing (If It Ain't Got That Swing) 01:53
05 - Stompin' At The Savoy 02:31
06 - Baubles, Bangles And Beads 02:29
07 - I'm Glad There Is You 02:40
08 - Willow Weep For Me 03:16
09 - Cry Like The Wind 02:38
10 - Bei Mir Bist Du Schon 02:44
11 - Swinging On A Star 02:33
12 - Give A Little Whistle 02:27
13 - When You Wish Upon A Star 02:33
14 - Bewitched, Bothered And Bewildered 04:56
15 - How High The Moon 02:34
16 - I Get Along Without You Very Well 03:09
17 - The Song Is You 04:21
18 - The Way You Look Tonight 02:48

Состав:
Доп. инфо:

Формат записи/Источник записи: [TR24][OF]
Издание: Remastered
Год издания/переиздания диска: 1950-1963/2019
Издатель (лейбл): RevOla
Продолжительность: 00:53:07
Наличие сканов в содержимом раздачи: Нет

Контейнер: FLAC (*.flac)
Тип рипа: tracks
Разрядность: 24/44,1
Количество каналов: 2.0

Источник (релизер): Qobuz

Лог проверки качества
foobar2000 1.3.16 / Dynamic Range Meter 1.1.1
log date: 2019-01-24 19:05:11

--------------------------------------------------------------------------------
Analyzed: June Christy / June Sings The Standards (Remastered)
--------------------------------------------------------------------------------

DR         Peak         RMS     Duration Track
--------------------------------------------------------------------------------
DR10      -6.27 dB   -18.95 dB      2:49 01-For All We Know (Remastered)
DR12      -6.03 dB   -21.25 dB      4:07 02-Do Nothin' Till You Hear From Me (Remastered)
DR13      -3.88 dB   -19.80 dB      2:41 03-They Can't Take That Away From Me (Remastered)
DR14      -3.36 dB   -21.39 dB      1:53 04-It Don't Mean A Thing (If It Ain't Got That Swing) (Remastered)
DR12      -1.58 dB   -17.22 dB      2:31 05-Stompin' At The Savoy (Remastered)
DR15      -1.83 dB   -18.86 dB      2:29 06-Baubles, Bangles And Beads (Remastered)
DR14      -4.81 dB   -23.83 dB      2:41 07-I'm Glad There Is You (Remastered)
DR11      -4.50 dB   -18.25 dB      3:16 08-Willow Weep For Me (Remastered)
DR12      -4.20 dB   -20.07 dB      2:38 09-Cry Like The Wind (Remastered)
DR12      -2.25 dB   -16.17 dB      2:45 10-Bei Mir Bist Du Schon (Remastered)
DR13      -2.25 dB   -18.22 dB      2:33 11-Swinging On A Star (Remastered)
DR13      -3.11 dB   -21.01 dB      2:27 12-Give A Little Whistle (Remastered)
DR16      -2.25 dB   -22.32 dB      2:34 13-When You Wish Upon A Star (Remastered)
DR14      -3.72 dB   -21.41 dB      4:57 14-Bewitched, Bothered And Bewildered (Remastered)
DR13      -2.60 dB   -20.19 dB      2:34 15-How High The Moon (Remastered)
DR14      -1.75 dB   -21.60 dB      3:10 16-I Get Along Without You Very Well (Remastered)
DR12      -3.94 dB   -20.53 dB      4:22 17-The Song Is You (Remastered)
DR13      -2.30 dB   -17.98 dB      2:49 18-The Way You Look Tonight (Remastered)
--------------------------------------------------------------------------------

Number of tracks:  18
Official DR value: DR13

Samplerate:        44100 Hz
Channels:          2
Bits per sample:   24
Bitrate:           1232 kbps
Codec:             FLAC
================================================================================
По всем вопросам пишите личное сообщение пользователю M0p94ok.
15:16
492
Нет комментариев. Ваш будет первым!