Вы используете незарегистрированную версию компонента "Вкладки"!

Поиск

1962 Paul Desmond & Gerry Mulligan - Two Of A Mind (2015) {Crazy Warthog Media} [24-44,1]

1962 Paul Desmond & Gerry Mulligan - Two Of A Mind (2015) {Crazy Warthog Media} [24-44,1]
Стили:
Дата записи диска:
26 июня - 13 августа 1962
Место записи:
RCA Studio A, New York, NY
Битрейт аудио:
lossless
Доп. инфо:

Формат записи/Источник записи: [TR24][OF]
Издание: Remastered
Год издания/переиздания диска: 1962/2015
Издатель (лейбл): Crazy Warthog Media
Продолжительность: 00:40:36
Наличие сканов в содержимом раздачи: Нет
Контейнер: FLAC (*.flac)
Тип рипа: tracks
Разрядность: 24/44,1
Количество каналов: 2.0

Источник (релизер): Qobuz

Лог проверки качества
foobar2000 1.4.3 / Dynamic Range Meter 1.1.1
log date: 2020-05-15 06:33:54

--------------------------------------------------------------------------------
Analyzed: Paul Desmond / Two Of A Mind
--------------------------------------------------------------------------------

DR         Peak         RMS     Duration Track
--------------------------------------------------------------------------------
DR11      -4.67 dB   -18.03 dB      5:49 01-All the Things You Are
DR11      -4.51 dB   -19.42 dB      8:22 02-Stardust
DR11      -2.79 dB   -16.25 dB      5:47 03-Two of a Mind
DR11      -5.17 dB   -19.75 dB      6:35 04-Blight of the Fumble Bee
DR12      -5.16 dB   -20.15 dB      7:21 05-The Way You Look Tonight
DR11      -5.76 dB   -20.25 dB      6:45 06-Out of Nowhere
--------------------------------------------------------------------------------

Number of tracks:  6
Official DR value: DR11

Samplerate:        44100 Hz
Channels:          2
Bits per sample:   24
Bitrate:           1526 kbps
Codec:             FLAC
================================================================================
Any questions - support@pro-jazz.com. Есть вопросы - support@pro-jazz.com
16:38
231
Нет комментариев. Ваш будет первым!