Вы используете незарегистрированную версию компонента "Вкладки"!

Поиск

2020 Dinosaur – To the Earth {Edition} [24-96]

2020 Dinosaur – To the Earth {Edition} [24-96]
Стили:
Битрейт аудио:
lossless
Доп. инфо:

Формат записи/Источник записи: [TR24][OF]
Наличие водяных знаков: Нет
Год издания: 2020
Издатель (лейбл): Edition Records
Продолжительность: 00:40:43
Наличие сканов в содержимом раздачи: Только обложка
Источник: web
Контейнер: FLAC (*.flac)
Тип рипа: tracks
Разрядность: 24/96
Формат: PCM
Количество каналов: 2.0

Лог проверки качества
foobar2000 1.3.16 / Dynamic Range Meter 1.1.1
log date: 2020-05-13 16:41:13

––––––––––––––––––––––––––––––––––––––––
Analyzed: Dinosaur / To the Earth
––––––––––––––––––––––––––––––––––––––––

DR Peak RMS Duration Track
––––––––––––––––––––––––––––––––––––––––
DR13 -0.57 dB -16.14 dB 7:21 01-To The Earth
DR13 -0.38 dB -15.69 dB 7:20 02-Slow Loris
DR12 -0.06 dB -14.67 dB 7:25 03-Mosking
DR11 -0.33 dB -13.14 dB 3:22 04-Held By Water
DR11 -0.58 dB -13.97 dB 6:42 05-Absinthe
DR11 -0.45 dB -13.38 dB 5:33 06-Banning Street Blues
DR14 -0.72 dB -18.11 dB 3:02 07-For One
––––––––––––––––––––––––––––––––––––––––

Number of tracks: 7
Official DR value: DR12

Samplerate: 96000 Hz
Channels: 2
Bits per sample: 24
Bitrate: 2490 kbps
Codec: FLAC
================================================================================
Any questions - support@pro-jazz.com. Есть вопросы - support@pro-jazz.com
18:25
263
Нет комментариев. Ваш будет первым!