Вы используете незарегистрированную версию компонента "Вкладки"!

Поиск

1962 Eddie Lockjaw Davis & Johnny Griffin - Ow! Live at the Penthouse (2021) {Cellar Live} [24-96]

1962 Eddie Lockjaw Davis & Johnny Griffin - Ow! Live at the Penthouse (2021) {Cellar Live} [24-96]
Стили:
Дата записи диска:
30 мая и 6 июня 1962
Место записи:
The Penthouse Jazz Club, Seattle, Washington, USA
Дата издания диска:
16 апреля 2021
Битрейт аудио:
lossless
Доп. инфо:

Формат записи/Источник записи: [TR24][OF]
Издание: Remastered
Год издания/переиздания диска: 1962/2021
Издатель (лейбл): Cellar Live
Продолжительность: 00:58:38
Наличие сканов в содержимом раздачи: Нет

Контейнер: FLAC (*.flac)
Тип рипа: tracks
Разрядность: 24/96
Количество каналов: 2.0

Источник (релизер): HIGHRESAUDIO

Лог проверки качества
foobar2000 1.4.3 / Dynamic Range Meter 1.1.1
log date: 2021-04-17 07:37:41

--------------------------------------------------------------------------------
Analyzed: Eddie "Lockjaw" Davis / Ow! Live at the Penthouse
--------------------------------------------------------------------------------

DR         Peak         RMS     Duration Track
--------------------------------------------------------------------------------
DR12      -1.79 dB   -17.60 dB      0:53 01-Intermission Riff I. Introduction by Jim Wilke (Live)
DR13      -0.50 dB   -15.59 dB      6:48 02-Blues Up and Down (Live)
DR13      -0.50 dB   -14.99 dB      8:20 03-Ow! (Live)
DR16     -12.81 dB   -30.55 dB      0:10 04-Spoken Outro I. (Live)
DR15      -0.50 dB   -17.57 dB      8:44 05-Bahia (Live)
DR15      -7.95 dB   -23.67 dB      0:05 06-Spoken Introduction I. (Live)
DR13      -0.50 dB   -15.53 dB      4:11 07-Blue Lou (Live)
DR11      -0.50 dB   -14.57 dB      7:15 08-Second Balcony Jump (Live)
DR14      -6.36 dB   -23.28 dB      0:08 09-Spoken Outro II. (Live)
DR13      -0.50 dB   -15.81 dB     10:15 10-How Am I to Know? (Live)
DR17      -3.05 dB   -22.83 dB      0:10 11-Spoken Introduction II. (Live)
DR14      -1.21 dB   -18.49 dB      4:04 12-Sophisticated Lady (Live)
DR17      -6.72 dB   -25.56 dB      0:10 13-Spoken Introduction III. (Live)
DR12      -0.50 dB   -15.12 dB      6:36 14-Tickle Toe (Live)
DR14      -0.50 dB   -16.25 dB      0:57 15-Intermission Riff II. Outro by Jim Wilke (Live)
--------------------------------------------------------------------------------

Number of tracks:  15
Official DR value: DR14

Samplerate:        96000 Hz
Channels:          2
Bits per sample:   24
Bitrate:           3044 kbps
Codec:             FLAC
================================================================================
Any questions - support@pro-jazz.com. Есть вопросы - support@pro-jazz.com
21:10
73
Нет комментариев. Ваш будет первым!