Поиск

2021 Bill Kwan - No Ordinary Love - The Music of Sade {Ikeda Music} [24-96]

2021 Bill Kwan - No Ordinary Love - The Music of Sade {Ikeda Music} [24-96]
Стили:
Дата издания диска:
16 апреля 2021
Битрейт аудио:
lossless
Доп. инфо:

Формат записи/Источник записи: [TR24][OF]
Наличие водяных знаков: Нет
Год издания: 2021
Издатель (лейбл): Ikeda Music
Продолжительность: 00:41:08
Наличие сканов в содержимом раздачи: Буклет PDF
Контейнер: FLAC (*.flac)
Тип рипа: tracks
Разрядность: 24/96
Формат: PCM
Количество каналов: 2.0
Источник (релизер): highresaudio.com

Лог проверки качества
foobar2000 1.4.8 / Dynamic Range Meter 1.1.1
log date: 2021-04-17 08:12:21

--------------------------------------------------------------------------------
Analyzed: Bill Kwan / No Ordinary Love - The Music of Sade
--------------------------------------------------------------------------------

DR         Peak         RMS     Duration Track
--------------------------------------------------------------------------------
DR8       -1.40 dB   -11.55 dB      4:12 01-The Sweetest Taboo
DR9       -1.40 dB   -13.57 dB      4:59 02-Flower of the Universe
DR7       -1.40 dB   -10.69 dB      4:19 03-King of Sorrow
DR8       -1.40 dB   -12.12 dB      4:50 04-Jezebel
DR7       -1.40 dB   -10.79 dB      5:41 05-No Ordinary Love
DR8       -3.40 dB   -13.71 dB      3:43 06-The Moon and the Sky
DR8       -1.40 dB   -10.98 dB      4:27 07-Love is Stronger Than Pride
DR8       -1.40 dB   -13.13 dB      4:05 08-Haunt Me
DR8       -1.40 dB   -11.91 dB      4:55 09-The Big Unknown
--------------------------------------------------------------------------------

Number of tracks:  9
Official DR value: DR8
Samplerate:        96000 Hz
Channels:          2
Bits per sample:   24
Bitrate:           2969 kbps
Codec:             FLAC
================================================================================
No seeders - write personal message to M0p94ok. Any questions - support@pro-jazz.com.
Нет сидеров - пишите в личку M0p94ok. Есть вопросы - support@pro-jazz.com
17:45
13
Нет комментариев. Ваш будет первым!