Вы используете незарегистрированную версию компонента "Вкладки"!

Поиск

2021 Alexa Tarantino - Firefly {Posi Tone} [24-88,2]

2021 Alexa Tarantino - Firefly {Posi Tone} [24-88,2]
Стили:
Дата издания диска:
16 апреля 2021
Битрейт аудио:
lossless
Доп. инфо:

Формат записи/Источник записи: [TR24][OF]
Год издания/переиздания диска: 2021
Издатель (лейбл): Posi Tone Records
Продолжительность: 00:57:29
Наличие сканов в содержимом раздачи: Нет

Контейнер: FLAC (*.flac)
Тип рипа: tracks
Разрядность: 24/88,2
Количество каналов: 2.0

Источник (релизер): HDTracks

Лог проверки качества
foobar2000 1.4.3 / Dynamic Range Meter 1.1.1
log date: 2021-04-17 19:16:02

--------------------------------------------------------------------------------
Analyzed: Alexa Tarantino / Firefly
--------------------------------------------------------------------------------

DR         Peak         RMS     Duration Track
--------------------------------------------------------------------------------
DR8       -0.98 dB   -10.51 dB      5:39 01-Spider's Dance
DR8       -0.98 dB   -10.80 dB      4:45 02-Mindful Moments
DR8       -0.98 dB   -10.40 dB      4:08 03-Move Of The Spirit
DR9       -0.98 dB   -12.73 dB      4:44 04-Iris
DR8       -0.98 dB   -10.33 dB      4:19 05-Daybreak
DR8       -0.98 dB   -11.40 dB      1:37 06-Surge Fughetta
DR9       -0.98 dB   -10.81 dB      4:12 07-Surge Capacity
DR10      -0.98 dB   -13.23 dB      4:34 08-La Donna Nel Giardino
DR9       -0.98 dB   -10.77 dB      6:43 09-Rootless Ruthlessness
DR10      -0.98 dB   -14.45 dB      6:33 10-Lady Day
DR8       -0.98 dB   -10.86 dB      4:24 11-Violet Sky
DR8       -0.98 dB   -11.18 dB      5:56 12-The Firefly Code
--------------------------------------------------------------------------------

Number of tracks:  12
Official DR value: DR9

Samplerate:        88200 Hz
Channels:          2
Bits per sample:   24
Bitrate:           2773 kbps
Codec:             FLAC
================================================================================
Any questions - support@pro-jazz.com. Есть вопросы - support@pro-jazz.com
09:13
69
Нет комментариев. Ваш будет первым!