Поиск

1962 Duke Pearson Quintet - Hush! (2021) {Music Manager} [24-48]

1962 Duke Pearson Quintet - Hush! (2021) {Music Manager} [24-48]
Стили:
Дата записи диска:
12 января 1962
Место записи:
RCA, New York
Издатель (лейбл):
Носитель:
WEB
Формат:
PCM
Тип рипа:
tracks
Контейнер:
FLAC (*.flac)
Количество каналов:
2.0
Разрядность/ЧД:
24/48
Битрейт аудио:
lossless
Наличие сканов:
только обложка

01 - Hush! 06:17
02 - Child's Play 05:36
03 - Angel Eyes 02:41
04 - Smoothie 05:53
05 - Sudel 07:10
06 - Friday's Child 06:30
07 - Out of This World 07:13
08 - Groovin' for Nat 03:40

Состав:
  • Duke Pearson — piano
  • Donald Byrd — trumpet (except tracks 3, 7)
  • Johnny Coles — trumpet (except tracks 3, 6, 7)
  • Bob Cranshaw — bass
  • Walter Perkins — drums
Лог проверки качества
foobar2000 1.4.6 / Dynamic Range Meter 1.1.1
log date: 2021-09-29 22:59:28
--------------------------------------------------------------------------------
Analyzed: Duke Pearson Quintet / Hush!
--------------------------------------------------------------------------------
DR         Peak         RMS     Duration Track
--------------------------------------------------------------------------------
DR11       0.00 dB   -12.74 dB      6:17 01-Hush!
DR9        0.00 dB   -11.11 dB      5:37 02-Child's Play
DR8       -0.03 dB   -10.31 dB      2:42 03-Angel Eyes
DR11       0.00 dB   -13.78 dB      5:54 04-Smoothie
DR10      -0.22 dB   -12.20 dB      7:11 05-Sudel
DR11      -0.22 dB   -13.58 dB      6:31 06-Friday's Child
DR11      -0.08 dB   -13.42 dB      7:13 07-Out of This World
DR10       0.00 dB   -11.24 dB      3:41 08-Groovin' for Nat
--------------------------------------------------------------------------------
Number of tracks:  8
Official DR value: DR10
Samplerate:        48000 Hz
Channels:          2
Bits per sample:   24
Bitrate:           1447 kbps
Codec:             FLAC
================================================================================
14:26
397
Нет комментариев. Ваш будет первым!