Поиск

1962 Charlie Shavers - At Le Crazy Horse Saloon in Paris {HiFi} [24-44.1]

1962 Charlie Shavers - At Le Crazy Horse Saloon in Paris {HiFi} [24-44.1]
Стили:
Дата издания диска:
13 марта 1962
Носитель:
WEB
Формат:
PCM
Тип рипа:
tracks
Контейнер:
FLAC (*.flac)
Количество каналов:
2.0
Разрядность/ЧД:
24/44,1
Битрейт аудио:
lossless
Наличие сканов:
только обложка

01 - One O'clock Jump 02:32
02 - The Man with a Horn 02:37
03 - Back Home Again in Indiana 01:51
04 - It Might as Well Be Spring 03:21
05 - Please Don't Talk About Me When I'm Gone 02:57
06 - You Came a Long Way from St. Louis 02:24
07 - Ja Da 02:35
08 - I've Got the World on a String 02:24
09 - But Beautiful 02:55
10 - Is You Is or Is You Ain't My Baby 02:29
11 - Fly Me to the Moon 02:33
12 - It Don't Mean a Thing (If It Ain't Got That Swing) 01:56

Состав:
  • Charlie Shavers — trumpet
Лог проверки качества
foobar2000 1.4.3 / Dynamic Range Meter 1.1.1
log date: 2022-04-18 18:44:42
--------------------------------------------------------------------------------
Analyzed: Charlie Shavers, Charlie Shavers, Charlie Shavers / At Le Crazy Horse Saloon in Paris
--------------------------------------------------------------------------------
DR         Peak         RMS     Duration Track
--------------------------------------------------------------------------------
DR8       -1.24 dB   -12.03 dB      2:32 01-One O'clock Jump
DR8       -1.24 dB   -11.19 dB      2:37 02-The Man with a Horn
DR9       -1.24 dB   -12.39 dB      1:52 03-Back Home Again in Indiana
DR11      -1.24 dB   -15.27 dB      3:21 04-It Might as Well Be Spring
DR9       -1.24 dB   -11.66 dB      2:58 05-Please Don't Talk About Me When I'm Gone
DR9       -1.24 dB   -11.87 dB      2:25 06-You Came a Long Way from St. Louis
DR8       -1.24 dB   -11.45 dB      2:35 07-Ja Da
DR10      -1.24 dB   -13.82 dB      2:24 08-I've Got the World on a String
DR10      -1.24 dB   -13.64 dB      2:56 09-But Beautiful
DR8       -1.24 dB   -11.28 dB      2:29 10-Is You Is or Is You Ain't My Baby
DR11      -1.24 dB   -15.29 dB      2:33 11-Fly Me to the Moon
DR8       -1.24 dB   -11.88 dB      1:57 12-It Don't Mean a Thing (If It Ain't Got That Swing)
--------------------------------------------------------------------------------
Number of tracks:  12
Official DR value: DR9
Samplerate:        44100 Hz
Channels:          2
Bits per sample:   24
Bitrate:           1468 kbps
Codec:             FLAC
================================================================================
Скачивание доступно после регистрации!!
Приватный:
Нет (DHT включён)
Размер:
320.39 Мб (335,954,217 байт) » файлов: 16
Участники:
0 раздают, 0 качают (0 участников всего)
Внешние участники:
5 раздают, 2 качают (7 участников всего) [ Обновить ]
13:17
305
Нет комментариев. Ваш будет первым!