Поиск

1962 Cleo Laine - All About Me (2019) {RevOla} [24-44.1]

1962 Cleo Laine - All About Me (2019) {RevOla} [24-44.1]
Стили:
Дата переиздания диска:
13 июня 2019
Издатель (лейбл):
Носитель:
WEB
Формат:
PCM
Тип рипа:
tracks
Контейнер:
FLAC (*.flac)
Количество каналов:
2.0
Разрядность/ЧД:
24/44,1
Битрейт аудио:
lossless
Время звучания:
00:36:18
Наличие сканов:
только обложка

Треклист:

01 - I Gotta Right To Sing the Blues 03:42
02 - I Don't Know Why 02:38
03 - I Want To Be Happy 02:49
04 - I Think Of You 02:43
05 - I Can Dream Can't I? 02:58
06 - All About Me 03:03
07 - I've Got My Love To Keep Me Warm 01:54
08 - I Got It Bad And That Ain't Good 04:27
09 - I'm A Dreamer Aren't We All? 02:36
10 - I'm Just Wild About Harry 02:26
11 - I Don't Want To Set The World On Fire 02:56
12 - I'll Be Around 03:03
13 - Reprise: All About Me 01:03

Состав:

 

  • Cleo Laine — vocals
  • Johnny Keating And His Orchestra
Лог проверки качества
foobar2000 1.4.3 / Dynamic Range Meter 1.1.1
log date: 2021-07-03 21:00:21

--------------------------------------------------------------------------------
Analyzed: Cleo Laine / All About Me
--------------------------------------------------------------------------------

DR         Peak         RMS     Duration Track
--------------------------------------------------------------------------------
DR12      -3.30 dB   -18.11 dB      3:42 01-I Gotta Right To Sing the Blues
DR11      -4.74 dB   -19.06 dB      2:38 02-I Don't Know Why
DR10      -3.37 dB   -18.01 dB      2:50 03-I Want To Be Happy
DR10      -7.39 dB   -21.11 dB      2:44 04-I Think Of You
DR10      -3.98 dB   -18.31 dB      2:59 05-I Can Dream Can't I?
DR12      -5.17 dB   -20.57 dB      3:03 06-All About Me
DR11      -3.37 dB   -16.61 dB      1:54 07-I've Got My Love To Keep Me Warm
DR12      -6.26 dB   -22.01 dB      4:28 08-I Got It Bad And That Ain't Good
DR11      -3.60 dB   -17.99 dB      2:37 09-I'm A Dreamer Aren't We All?
DR10      -3.23 dB   -20.58 dB      2:27 10-I'm Just Wild About Harry
DR11      -4.63 dB   -20.47 dB      2:56 11-I Don't Want To Set The World On Fire
DR10      -6.34 dB   -20.24 dB      3:04 12-I'll Be Around
DR11      -6.26 dB   -20.70 dB      1:03 13-Reprise: All About Me
--------------------------------------------------------------------------------

Number of tracks:  13
Official DR value: DR11

Samplerate:        44100 Hz
Channels:          2
Bits per sample:   24
Bitrate:           1315 kbps
Codec:             FLAC
================================================================================
По всем вопросам пишите личное сообщение пользователю M0p94ok.
11:28
230
Нет комментариев. Ваш будет первым!