Поиск

2021 Vladimir Shafranov Trio - How High The Moon {Venus VHGD-366} [DSD64 ISO]

2021 Vladimir Shafranov Trio - How High The Moon {Venus VHGD-366} [DSD64 ISO]
Дата записи диска:
18 сентября - 19 сентября 2020
Место записи:
Yardhouse Studio, Tullinge, Sweden
Дата издания диска:
17 февраля 2021
Издатель (лейбл):
Номер по каталогу:
VHGD-366
Носитель:
SACD
Формат:
DSD
Тип рипа:
image
Контейнер:
ISO (*.iso)
Количество каналов:
2.0
Разрядность/ЧД:
64 (2,8 MHz/1 Bit)
Битрейт аудио:
lossless
Время звучания:
00:47:01
Наличие сканов:
только обложка

01. How High the Moon  04:06
02. Alone Together  07:33
03. Dear Old Stockholm  06:27
04. When October Goes  02:59
05. On Green Dolphin Street  06:21
06. Last Night When We Were Young  04:14
07. I Didn't Know What Time It Was  03:29
08. Birks Works  03:42
09. Da Cor Do Pecado  03:16
10. What a Wonderful World  04:40

Состав:
  • Vladimir Shafranov — piano
  • Hans Backenroth — bass
  • Moussa Fadera — drums
Лог проверки качества
foobar2000 1.6.4 / Dynamic Range Meter 1.1.1
log date: 2021-07-10 13:23:33

--------------------------------------------------------------------------------
Analyzed: VLADIMIR SHAFRANOV TRIO / How High The Moon
--------------------------------------------------------------------------------

DR         Peak         RMS     Duration Track
--------------------------------------------------------------------------------
DR9       -5.21 dB   -17.29 dB      4:08 01-How High The Moon
DR9       -5.10 dB   -16.61 dB      7:34 02-Alone Together
DR8       -5.10 dB   -16.22 dB      6:28 03-Dear Old Stockholm
DR9       -5.72 dB   -18.51 dB      3:00 04-When October Goes
DR11      -4.73 dB   -18.78 dB      6:22 05-On Green Dolphin Street
DR10      -5.09 dB   -19.37 dB      4:16 06-Last Night When We Were Young
DR9       -5.16 dB   -17.04 dB      3:29 07-I Didn't Know What Time It Was
DR9       -4.83 dB   -16.66 dB      3:43 08-Birks Works
DR8       -6.43 dB   -17.74 dB      3:17 09-Da Cor Do Pecado
DR10      -6.06 dB   -19.36 dB      4:42 10-What A Wonderful World
--------------------------------------------------------------------------------

Number of tracks:  10
Official DR value: DR9

Samplerate:        2822400 Hz / PCM Samplerate: 88200 Hz
Channels:          2
Bits per sample:   1
Bitrate:           5645 kbps
Codec:             DSD64
================================================================================
Приватный:
Нет (DHT включён)
Размер:
1.90 Гб (2,037,394,253 байт) » файлов: 5
Участники:
5 раздают, 0 качают (5 участников всего)
Внешние участники:
9 раздают, 3 качают (12 участников всего) [ Обновить ]
13:31
658
Нет комментариев. Ваш будет первым!