Поиск

2020 Raimundo Barría - Inercia {Vertigo} [24-48]

2020 Raimundo Barría - Inercia {Vertigo} [24-48]
Стили:
Дата издания диска:
2 января 2020
Носитель:
WEB
Формат:
PCM
Тип рипа:
tracks
Контейнер:
FLAC (*.flac)
Количество каналов:
2.0
Разрядность/ЧД:
24/48
Битрейт аудио:
lossless
Время звучания:
00:48:09
Наличие сканов:
только обложка

1. Nasty Things  07:58
2. InerciaSebastian Jordan, Agustin Moya  05:34
3. Tetris BluesSebastian Jordan, Agustin Moya  07:02
4. Interludio  04:18
5. LapsusSebastian Jordan, Agustin Moya  07:01
6. Body And Soul  08:41
7. Minor Dance  07:32

Состав:
  • Raimundo Barría
  • Milton Russell
  • Juan Pablo Jaramillo
  • Sebastian Jordan
  • Agustin Moya
Лог проверки качества
foobar2000 1.6.2 / Dynamic Range Meter 1.1.1
log date: 2021-12-15 10:31:47

--------------------------------------------------------------------------------
Analyzed: Raimundo Barría / Inercia
--------------------------------------------------------------------------------

DR         Peak         RMS     Duration Track
--------------------------------------------------------------------------------
DR11      -0.50 dB   -14.03 dB      7:58 01-Nasty Things
DR12      -0.50 dB   -14.58 dB      5:35 02-Inercia
DR12      -0.50 dB   -14.88 dB      7:02 03-Tetris Blues
DR12      -0.50 dB   -14.18 dB      4:19 04-Interludio
DR12      -0.50 dB   -14.11 dB      7:01 05-Lapsus
DR14      -0.50 dB   -18.79 dB      8:42 06-Body And Soul
DR12      -0.50 dB   -15.10 dB      7:33 07-Minor Dance
--------------------------------------------------------------------------------

Number of tracks:  7
Official DR value: DR12

Samplerate:        48000 Hz
Channels:          2
Bits per sample:   24
Bitrate:           1616 kbps
Codec:             FLAC
================================================================================
Приватный:
Да (DHT отключён)
Размер:
578.13 Мб (606,213,063 байт) » файлов: 9
Участники:
34 раздают, 6 качают (40 участников всего)
Внешние участники:
--- [ Обновить ]
12:12
423
Нет комментариев. Ваш будет первым!