Поиск

1962 Anita O'Day & Cal Tjader - Time For Two! (2018) {RevOla} [24-44.1]

1962 Anita O'Day & Cal Tjader - Time For Two! (2018) {RevOla} [24-44.1]
Дата записи диска:
26 февраля - 28 февраля 1962
Место записи:
Hollywood, CA
Издатель (лейбл):
Носитель:
WEB
Формат:
PCM
Тип рипа:
tracks
Контейнер:
FLAC (*.flac)
Количество каналов:
2.0
Разрядность/ЧД:
24/44,1
Битрейт аудио:
lossless
Время звучания:
00:32:18
Наличие сканов:
только обложка

Треклист:

01 - Thanks For The Memory 02:49
02 - It Shouldn't Happen To A Dream 03:02
03 - Just In Time 02:50
04 - Under A Blanket Of Blue 02:25
05 - That's Your Red Wagon 02:52
06 - Peel Me A Grape 03:05
07 - An Occasional Man 02:30
08 - The Party's Over 02:23
09 - I Believe In You 02:26
10 - Mr. Sandman 01:57
11 - Spring Will Be A Little Late This Year 03:26
12 - I'm Not Supposed To Be Blue Blues 02:33

Состав:
  • Anita O'Day – vocals
  • Cal Tjader – vibraphone
  • Bob Corwin, Lonnie Hewitt – piano
  • Freddy Schreiber – double bass
  • Wilfredo "Changuito" Vicente – congas
  • Johnny Rae – drums
Лог проверки качества
foobar2000 1.4.3 / Dynamic Range Meter 1.1.1
log date: 2021-10-12 21:24:50
--------------------------------------------------------------------------------
Analyzed: Anita O'Day & Cal Tjader / Time For Two!
--------------------------------------------------------------------------------
DR         Peak         RMS     Duration Track
--------------------------------------------------------------------------------
DR13      -0.29 dB   -16.61 dB      2:46 01-Thanks for the Memory
DR12      -0.49 dB   -15.80 dB      3:00 02-It Shouldn't Happen to a Dream
DR11      -0.98 dB   -15.29 dB      2:49 03-Just in Time
DR11      -0.12 dB   -14.45 dB      2:22 04-Under a Blanket of Blue
DR12      -0.14 dB   -14.70 dB      2:49 05-That's Your Red Wagon
DR12      -0.19 dB   -15.32 dB      3:04 06-Peel Me a Grape
DR13       0.00 dB   -15.47 dB      2:29 07-An Occasional Man
DR12      -0.24 dB   -15.60 dB      2:21 08-The Party's Over
DR12      -0.08 dB   -18.12 dB      2:25 09-I Believe In You
DR12       0.00 dB   -15.47 dB      1:56 10-Mr. Sandman
DR11      -1.52 dB   -16.40 dB      3:24 11-Spring Will Be a Little Late This Year
DR11      -0.01 dB   -15.48 dB      2:34 12-I'm Not Supposed to Be Blue Blues
--------------------------------------------------------------------------------
Number of tracks:  12
Official DR value: DR12
Samplerate:        44100 Hz
Channels:          2
Bits per sample:   24
Bitrate:           1487 kbps
Codec:             FLAC
================================================================================
18:01
403
Нет комментариев. Ваш будет первым!