Поиск

1988 Joyce Cooling - Cameo {There} [24-44.1]

1988 Joyce Cooling - Cameo {There} [24-44.1]
Носитель:
WEB
Формат:
PCM
Тип рипа:
tracks
Контейнер:
FLAC (*.flac)
Количество каналов:
2.0
Разрядность/ЧД:
24/44,1
Битрейт аудио:
lossless
Время звучания:
00:36:40
Наличие сканов:
только обложка

Треклист:

1. Its You  04:21
2. The Way Out  05:23
3. Voo Doo Chicken  04:40
4. Ve  03:34
5. Glad Rap  05:04
6. Its Time I Go  04:07
7. Its On You  04:45
8. Dori  04:46

Состав:
  • Claudio Amaral     Composer, Vocals, Vocals (Background)
  • Audio Captain     Executive Producer
  • Joyce Cooling     Arranger, Composer, Guitar, Producer, Vocals, Vocals (Background)
  • Jerry Dean     Liner Notes
  • Helio Garcias     Bass (Electric)
  • George Horn     Mastering
  • Tom Mallon     Engineer, Linn Drum
  • Gary Mankin     Engineer
  • Kent Middleton     Percussion
  • Rubens Moura Jr.     Drums, Vocals (Background)
  • Jorge Pomar     Bass
  • Dave Rokeach     Drums
  • John P. Valentine     Executive Producer
  • Jay Wagner     Accordion, Arranger, Composer, Keyboards, Producer, Vocals (Background)
Лог проверки качества
foobar2000 1.4.3 / Dynamic Range Meter 1.1.1
log date: 2021-10-14 17:59:07
--------------------------------------------------------------------------------
Analyzed: Joyce Cooling / Cameo
--------------------------------------------------------------------------------
DR         Peak         RMS     Duration Track
--------------------------------------------------------------------------------
DR12      -0.18 dB   -14.22 dB      4:22 01-It's You
DR11      -0.18 dB   -14.19 dB      5:23 02-The Way Out
DR12      -0.18 dB   -14.25 dB      4:40 03-Voo Doo Chicken
DR13      -0.18 dB   -15.76 dB      3:34 04-Ve
DR10      -0.18 dB   -12.20 dB      5:05 05-Glad Rap
DR13      -1.82 dB   -17.73 dB      4:07 06-It's Time I Go
DR12      -0.18 dB   -14.30 dB      4:46 07-It's On You
DR9        0.00 dB   -10.94 dB      4:46 08-Dori
--------------------------------------------------------------------------------
Number of tracks:  8
Official DR value: DR12
Samplerate:        44100 Hz
Channels:          2
Bits per sample:   24
Bitrate:           1683 kbps
Codec:             FLAC
================================================================================
По всем вопросам пишите личное сообщение пользователю M0p94ok.
09:42
140
Нет комментариев. Ваш будет первым!