Поиск

1957 Connie Haines - A Tribute To Helen Morgan (2021) {RevOla} [24-96]

1957 Connie Haines - A Tribute To Helen Morgan (2021) {RevOla} [24-96]
Стили:
Издатель (лейбл):
Носитель:
WEB
Формат:
PCM
Тип рипа:
tracks
Контейнер:
FLAC (*.flac)
Количество каналов:
2.0
Разрядность/ЧД:
24/96
Битрейт аудио:
lossless
Время звучания:
00:36:41
Наличие сканов:
только обложка

01 - Why I Was I Born? 01:53
02 - They Didn't Believe Me 03:55
03 - Yesterdays 03:12
04 - Broken Hearted 02:58
05 - Make Believe 02:58
06 - Mean To Me 03:31
07 - Can't Help Lovin' That Man 02:57
08 - Don't Ever Leave Me 02:24
09 - More Than You Know 03:55
10 - The Way You Look Tonight 02:59
11 - Bill 02:31
12 - Why Do I Love You? 03:28

Состав:
  • Vocals – Connie Haines
  • Piano – John T. Williams
  • Trumpet – Don Fagerquist
  • Woodwind – Ronny Lang
  • Lew Raymond Orchestra
Лог проверки качества
foobar2000 1.4.3 / Dynamic Range Meter 1.1.1
log date: 2021-10-11 22:06:48
--------------------------------------------------------------------------------
Analyzed: Connie Haines / A Tribute To Helen Morgan
--------------------------------------------------------------------------------
DR         Peak         RMS     Duration Track
--------------------------------------------------------------------------------
DR9       -4.95 dB   -17.01 dB      1:54 01-Why I Was I Born? (Remastered)
DR10      -3.01 dB   -14.54 dB      3:56 02-They Didn't Believe Me (Remastered)
DR11      -3.09 dB   -16.17 dB      3:13 03-Yesterdays (Remastered)
DR13      -3.02 dB   -18.13 dB      2:58 04-Broken Hearted (Remastered)
DR13      -3.02 dB   -18.13 dB      2:58 05-Make Believe (Remastered)
DR9       -4.40 dB   -16.03 dB      3:31 06-Mean To Me (Remastered)
DR11      -3.02 dB   -15.84 dB      2:57 07-Can't Help Lovin' That Man (Remastered)
DR10      -3.01 dB   -14.93 dB      2:24 08-Don't Ever Leave Me. (Remastered)
DR10      -3.44 dB   -16.67 dB      3:56 09-More Than You Know (Remastered)
DR10      -4.44 dB   -16.35 dB      2:59 10-The Way You Look Tonight (Remastered)
DR11      -3.02 dB   -15.29 dB      2:31 11-Bill (Remastered)
DR8       -5.06 dB   -16.29 dB      3:29 12-Why Do I Love You? (Remastered)
--------------------------------------------------------------------------------
Number of tracks:  12
Official DR value: DR11
Samplerate:        96000 Hz
Channels:          2
Bits per sample:   24
Bitrate:           1205 kbps
Codec:             FLAC
================================================================================
Приватный:
Нет (DHT включён)
Размер:
326.96 Мб (342,846,784 байт) » файлов: 17
Участники:
0 раздают, 0 качают (0 участников всего)
Внешние участники:
1 раздают, 0 качают (1 участников всего) [ Обновить ]
10:53
351
Нет комментариев. Ваш будет первым!