Поиск

1962 (2014) Gerry Mulligan - Jeru {Sony SICP 4024}

1962 (2014) Gerry Mulligan - Jeru {Sony SICP 4024}
Страна-производитель диска (релиза):
Japan
Дата записи диска:
30 июня 1962
Дата издания диска:
1962
Дата переиздания диска:
2014
Издатель (лейбл):
Номер по каталогу:
SICP 4024
Носитель:
CD
Битрейт аудио:
lossless
Аудиокодек:
FLAC (*.flac)
Тип рипа:
tracks+.cue
Время звучания:
36:28
Наличие сканов:
  • да
Релизёр (источник):
ruskaval

Состав:
  • Gerry Mulligan — baritone saxophone
  • Tommy Flanagan — piano
  • Ben Tucker — bass
  • Dave Bailey — drums
  • Alec Dorsey — congas

Записано в

  • Nola Penthouse Studio, New York

01. Capricious (Taylor) - 5:48
02. Here I'll Stay (Lerner-Weill) - 5:01
03. Inside Impromptu (Taylor) - 5:32
04. You've Come Home (Leigh-Coleman) - 5:40
05. Get Out of Town (Porter) - 4:12
06. Blue Boy (Mulligan) - 4:39
07. Lonely Town (Comden-Green-Bernstein) - 5:36

Лог создания рипа
Exact Audio Copy V1.1 from 23. June 2015
EAC extraction logfile from 20. July 2017, 17:26
Gerry Mulligan / Jeru
Used drive : TSSTcorpCDDVDW SE-208DB Adapter: 1 ID: 1
Read mode : Secure
Utilize accurate stream : Yes
Defeat audio cache : Yes
Make use of C2 pointers : No
Read offset correction : 6
Overread into Lead-In and Lead-Out : No
Fill up missing offset samples with silence : Yes
Delete leading and trailing silent blocks : No
Null samples used in CRC calculations : Yes
Used interface : Native Win32 interface for Win NT & 2000
Gap handling : Appended to previous track
Used output format : User Defined Encoder
Selected bitrate : 1024 kBit/s
Quality : High
Add ID3 tag : No
Command line compressor : C:\Program Files (x86)\FLAC Frontend\tools\flac.exe
Additional command line options : -8 -V -T "ARTIST=%artist%" -T "TITLE=%title%" -T "ALBUM=%albumtitle%" -T "DATE=%year%" -T "TRACKNUMBER=%tracknr%" -T "TOTALTRACKS=%numtracks%" -T "GENRE=%genre%" -T "ALBUMARTIST=%albumartist%" -T "ALBUM ARTIST=%albumartist%" -T "COMMENT=EAC Secure Mode, Test & Copy, AccurateRip, FLAC -8" %source%
TOC of the extracted CD Track | Start | Length | Start sector | End sector --------------------------------------------------------- 1 | 0:00.00 | 5:47.41 | 0 | 26065 2 | 5:47.41 | 5:00.39 | 26066 | 48604 3 | 10:48.05 | 5:32.25 | 48605 | 73529 4 | 16:20.30 | 5:40.10 | 73530 | 99039 5 | 22:00.40 | 4:12.37 | 99040 | 117976 6 | 26:13.02 | 4:38.49 | 117977 | 138875 7 | 30:51.51 | 5:35.43 | 138876 | 164043
Track 1 Filename D:\_EAC\Gerry Mulligan - Jeru (1962) [FLAC] {Columbia Japan SICP 4024 rel 2014}\01 - Capricious.wav Pre-gap length 0:00:02.00 Peak level 100.0 % Extraction speed 1.2 X Track quality 100.0 % Test CRC D1E4284C Copy CRC D1E4284C Accurately ripped (confidence 3) [BFF51577] (AR v2) Copy OK
Track 2 Filename D:\_EAC\Gerry Mulligan - Jeru (1962) [FLAC] {Columbia Japan SICP 4024 rel 2014}\02 - Here I'll Stay.wav Peak level 98.9 % Extraction speed 1.3 X Track quality 100.0 % Test CRC B775B34F Copy CRC B775B34F Accurately ripped (confidence 3) [7265CA4D] (AR v2) Copy OK
Track 3 Filename D:\_EAC\Gerry Mulligan - Jeru (1962) [FLAC] {Columbia Japan SICP 4024 rel 2014}\03 - Inside Impromptu.wav Peak level 100.0 % Extraction speed 1.2 X Track quality 99.9 % Test CRC 9445F61E Copy CRC 9445F61E Accurately ripped (confidence 3) [C62826CE] (AR v2) Copy OK
Track 4 Filename D:\_EAC\Gerry Mulligan - Jeru (1962) [FLAC] {Columbia Japan SICP 4024 rel 2014}\04 - You've Come Home.wav Peak level 99.1 % Extraction speed 1.4 X Track quality 100.0 % Test CRC 9031C4B6 Copy CRC 9031C4B6 Accurately ripped (confidence 3) [D1EBC8D8] (AR v2) Copy OK
Track 5 Filename D:\_EAC\Gerry Mulligan - Jeru (1962) [FLAC] {Columbia Japan SICP 4024 rel 2014}\05 - Get Out Of Town.wav Peak level 100.0 % Extraction speed 1.5 X Track quality 100.0 % Test CRC 81050817 Copy CRC 81050817 Accurately ripped (confidence 3) [0CEDE276] (AR v2) Copy OK
Track 6 Filename D:\_EAC\Gerry Mulligan - Jeru (1962) [FLAC] {Columbia Japan SICP 4024 rel 2014}\06 - Blue Boy.wav Peak level 100.0 % Extraction speed 1.6 X Track quality 100.0 % Test CRC 690001FC Copy CRC 690001FC Accurately ripped (confidence 3) [0BE32CB8] (AR v2) Copy OK
Track 7 Filename D:\_EAC\Gerry Mulligan - Jeru (1962) [FLAC] {Columbia Japan SICP 4024 rel 2014}\07 - Lonely Town.wav Peak level 100.0 % Extraction speed 1.7 X Track quality 100.0 % Test CRC F8461BF5 Copy CRC F8461BF5 Accurately ripped (confidence 3) [9F7684B2] (AR v2) Copy OK
All tracks accurately ripped
No errors occurred
End of status report
---- CUETools DB Plugin V2.1.6
[CTDB TOCID: JcH3eCXIeZgUhcWlbUzgTEs85z8-] found
Submit result: JcH3eCXIeZgUhcWlbUzgTEs85z8- has been confirmed
Track | CTDB Status 1 | (9/9) Accurately ripped 2 | (9/9) Accurately ripped 3 | (9/9) Accurately ripped 4 | (9/9) Accurately ripped 5 | (9/9) Accurately ripped 6 | (9/9) Accurately ripped 7 | (9/9) Accurately ripped
==== Log checksum CB3B9897A8DEEACD3C5E285DEE923968846D191C78D921B153823FBC41C3AD77 ====
Содержание индексной карты (.CUE)
REM GENRE Jazz
REM DATE 1962
REM DISCID 5B088B07
REM COMMENT "ExactAudioCopy v1.1"
PERFORMER "Gerry Mulligan"
TITLE "Jeru"
FILE "01 - Capricious.wav" WAVE TRACK 01 AUDIO TITLE "Capricious" PERFORMER "Gerry Mulligan" INDEX 01 00:00:00
FILE "02 - Here I'll Stay.wav" WAVE TRACK 02 AUDIO TITLE "Here I'll Stay" PERFORMER "Gerry Mulligan" INDEX 01 00:00:00
FILE "03 - Inside Impromptu.wav" WAVE TRACK 03 AUDIO TITLE "Inside Impromptu" PERFORMER "Gerry Mulligan" INDEX 01 00:00:00
FILE "04 - You've Come Home.wav" WAVE TRACK 04 AUDIO TITLE "You've Come Home" PERFORMER "Gerry Mulligan" INDEX 01 00:00:00
FILE "05 - Get Out of Town.wav" WAVE TRACK 05 AUDIO TITLE "Get Out of Town" PERFORMER "Gerry Mulligan" INDEX 01 00:00:00
FILE "06 - Blue Boy.wav" WAVE TRACK 06 AUDIO TITLE "Blue Boy" PERFORMER "Gerry Mulligan" INDEX 01 00:00:00
FILE "07 - Lonely Town.wav" WAVE TRACK 07 AUDIO TITLE "Lonely Town" PERFORMER "Gerry Mulligan" INDEX 01 00:00:00
Лог проверки качества
[CUETools log; Date: 11.09.2017 19:23:24; Version: 2.1.5]
[CTDB TOCID: JcH3eCXIeZgUhcWlbUzgTEs85z8-] found.
Track | CTDB Status 1 | (10/10) Accurately ripped 2 | (10/10) Accurately ripped 3 | (10/10) Accurately ripped 4 | (10/10) Accurately ripped 5 | (10/10) Accurately ripped 6 | (10/10) Accurately ripped 7 | (10/10) Accurately ripped
[AccurateRip ID: 000a31ea-003cb95e-5b088b07] found.
Track [ CRC | V2 ] Status 01 [b7fa2d7a|bff51577] (0+3/3) Accurately ripped 02 [fdb9caeb|7265ca4d] (0+3/3) Accurately ripped 03 [41202501|c62826ce] (0+3/3) Accurately ripped 04 [467172c5|d1ebc8d8] (0+3/3) Accurately ripped 05 [c7ac5043|0cede276] (0+3/3) Accurately ripped 06 [b75284d6|0be32cb8] (0+3/3) Accurately ripped 07 [908e8338|9f7684b2] (0+3/3) Accurately ripped
Track Peak [ CRC32 ] [W/O NULL] [ LOG ] -- 100,0 [BF6EBA53] [1D4E35A0] 01 100,0 [D1E4284C] [C65AAEA6] CRC32 02 98,9 [B775B34F] [BF42316F] CRC32 03 100,0 [9445F61E] [2B3097C8] CRC32 04 99,1 [9031C4B6] [87CFDD60] CRC32 05 100,0 [81050817] [B1F32FA3] CRC32 06 100,0 [690001FC] [64EAF482] CRC32 07 100,0 [F8461BF5] [480E3BC0] CRC32
Скачивание доступно после регистрации!!
Приватный:
Нет (DHT включён)
Размер:
258.97 Мб (271,545,539 байт) » файлов: 18
Участники:
0 раздают, 1 качают (1 участников всего)
Внешние участники:
7 раздают, 2 качают (9 участников всего) [ Обновить ]
Скорость:
371.92 Кб/c 0/c
20:15
239
RSS
Нет комментариев. Ваш будет первым!