Поиск

1992 Roy Campbell, Jr. - New Kingdom {Delmark DE 456}

1992 Roy Campbell, Jr. - New Kingdom {Delmark DE 456}
Стили:
Страна-производитель диска (релиза):
USA
Дата записи диска:
6-8 октября 1991
Дата издания диска:
1992
Издатель (лейбл):
Номер по каталогу:
DE 456
Носитель:
CD
Битрейт аудио:
lossless
Аудиокодек:
FLAC (*.flac)
Тип рипа:
tracks+.cue
Время звучания:
01:03:51
Наличие сканов:
  • нет
Релизёр (источник):
MolluskGoneBad

Состав:
  • Roy Campbell, Jr.   Composer, Cornet, Flugelhorn, Trumpet
  • Bryan Carrott   Vibraphone
  • Robert G. Koester   Producer
  • Zane Massey   Composer, Sax (Tenor)
  • Zen Matsuura   Drums
  • Michael McDonald   Engineer
  • William Parker   Bass, Composer
  • Ricardo Strobert   Flute, Sax (Alto)
  • Steve Wagner   Producer
  • Kevin Whitehead   Liner Notes

Записано в 

  • Sear Sound, New York, NY

1. I Remember Lee
2. Angel
3. Thanks To The Creator
4. For C.T.
5. Mariescia
6. Frankenstein & Igor
7. Peace
8. Spiritual Rejuvenation

Лог создания рипа
Exact Audio Copy V1.0 beta 2 from 29. April 2011
EAC extraction logfile from 1. September 2011, 15:04
Roy Campbell / New Kingdom
Used drive : TSSTcorpCDDVDW SH-S223Q Adapter: 0 ID: 1
Read mode : Secure
Utilize accurate stream : Yes
Defeat audio cache : Yes
Make use of C2 pointers : No
Read offset correction : 6
Overread into Lead-In and Lead-Out : No
Fill up missing offset samples with silence : Yes
Delete leading and trailing silent blocks : No
Null samples used in CRC calculations : Yes
Used interface : Native Win32 interface for Win NT & 2000
Gap handling : Appended to previous track
Used output format : User Defined Encoder
Selected bitrate : 1024 kBit/s
Quality : High
Add ID3 tag : No
Command line compressor : C:\Program Files (x86)\Exact Audio Copy\Flac\flac.exe
Additional command line options : -8 -V -T "ARTIST=%artist%" -T "TITLE=%title%" -T "ALBUM=%albumtitle%" -T "DATE=%year%" -T "TRACKNUMBER=%tracknr%" -T "GENRE=%genre%" -T "PERFORMER=%albuminterpret%" -T "COMPOSER=%composer%" %haslyrics%--tag-from-file=LYRICS
TOC of the extracted CD Track | Start | Length | Start sector | End sector --------------------------------------------------------- 1 | 0:00.50 | 10:38.00 | 50 | 47899 2 | 10:38.50 | 7:18.00 | 47900 | 80749 3 | 17:56.50 | 6:21.72 | 80750 | 109396 4 | 24:18.47 | 10:31.03 | 109397 | 156724 5 | 34:49.50 | 5:54.37 | 156725 | 183311 6 | 40:44.12 | 8:44.38 | 183312 | 222649 7 | 49:28.50 | 3:51.00 | 222650 | 239974 8 | 53:19.50 | 11:02.12 | 239975 | 289636
Track 1 Filename S:\EACRips\Roy Campbell - New Kingdom\01 I Remember Lee.wav Pre-gap length 0:00:02.50 Peak level 98.8 % Extraction speed 5.5 X Track quality 100.0 % Test CRC FD5CDADA Copy CRC FD5CDADA Cannot be verified as accurate (confidence 3) [0D741C51], AccurateRip returned [2E27F9BB] (AR v2) Copy OK
Track 2 Filename S:\EACRips\Roy Campbell - New Kingdom\02 Angel.wav Pre-gap length 0:00:04.08 Peak level 100.0 % Extraction speed 6.4 X Track quality 100.0 % Test CRC 1B83B9B6 Copy CRC 1B83B9B6 Cannot be verified as accurate (confidence 3) [F73373CD], AccurateRip returned [E22B9F7D] (AR v2) Copy OK
Track 3 Filename S:\EACRips\Roy Campbell - New Kingdom\03 Thanks to the Creator.wav Pre-gap length 0:00:03.35 Peak level 100.0 % Extraction speed 6.9 X Track quality 100.0 % Test CRC C3C6B687 Copy CRC C3C6B687 Cannot be verified as accurate (confidence 3) [EBB1EDF3], AccurateRip returned [609A8DE2] (AR v2) Copy OK
Track 4 Filename S:\EACRips\Roy Campbell - New Kingdom\04 For C.T..wav Pre-gap length 0:00:03.42 Peak level 98.8 % Extraction speed 7.9 X Track quality 100.0 % Test CRC E5271301 Copy CRC E5271301 Cannot be verified as accurate (confidence 3) [37E1F7D9], AccurateRip returned [FC50DDB9] (AR v2) Copy OK
Track 5 Filename S:\EACRips\Roy Campbell - New Kingdom\05 Mariescia.wav Pre-gap length 0:00:04.08 Peak level 71.5 % Extraction speed 8.1 X Track quality 100.0 % Test CRC 8CC44C48 Copy CRC 8CC44C48 Cannot be verified as accurate (confidence 3) [DB3B32C4], AccurateRip returned [CC6A9222] (AR v2) Copy OK
Track 6 Filename S:\EACRips\Roy Campbell - New Kingdom\06 Frankenstein & Igor.wav Pre-gap length 0:00:04.07 Peak level 100.0 % Extraction speed 8.9 X Track quality 100.0 % Test CRC 781A4F2B Copy CRC 781A4F2B Cannot be verified as accurate (confidence 3) [FE091CCA], AccurateRip returned [8CE3D8A7] (AR v2) Copy OK
Track 7 Filename S:\EACRips\Roy Campbell - New Kingdom\07 Peace.wav Pre-gap length 0:00:03.08 Peak level 100.0 % Extraction speed 8.6 X Track quality 100.0 % Test CRC D3AA7D64 Copy CRC D3AA7D64 Cannot be verified as accurate (confidence 3) [6295CEAE], AccurateRip returned [A047C181] (AR v2) Copy OK
Track 8 Filename S:\EACRips\Roy Campbell - New Kingdom\08 Spiritual Rejuvenation.wav Pre-gap length 0:00:04.08 Peak level 98.8 % Extraction speed 9.9 X Track quality 100.0 % Test CRC A7795545 Copy CRC A7795545 Cannot be verified as accurate (confidence 2) [5FFACB49], AccurateRip returned [EB89B783] (AR v2) Copy OK
No tracks could be verified as accurate
You may have a different pressing from the one(s) in the database
No errors occurred
End of status report
==== Log checksum E349829EE8D0234C47B4732F125815EBDC447C3C6E8852FC6038B1ABD933D8B1 ====
Содержание индексной карты (.CUE)
REM GENRE Jazz
REM DATE 1992
REM DISCID 5B0F1508
REM COMMENT "ExactAudioCopy v1.0b2"
PERFORMER "Roy Campbell"
TITLE "New Kingdom"
FILE "01 I Remember Lee.wav" WAVE TRACK 01 AUDIO TITLE "I Remember Lee" PERFORMER "Roy Campbell" PREGAP 00:00:50 INDEX 01 00:00:00 TRACK 02 AUDIO TITLE "Angel" PERFORMER "Roy Campbell" INDEX 00 10:33:67
FILE "02 Angel.wav" WAVE INDEX 01 00:00:00 TRACK 03 AUDIO TITLE "Thanks to the Creator" PERFORMER "Roy Campbell" INDEX 00 07:14:40
FILE "03 Thanks to the Creator.wav" WAVE INDEX 01 00:00:00 TRACK 04 AUDIO TITLE "For C.T." PERFORMER "Roy Campbell" INDEX 00 06:18:30
FILE "04 For C.T..wav" WAVE INDEX 01 00:00:00 TRACK 05 AUDIO TITLE "Mariescia" PERFORMER "Roy Campbell" INDEX 00 10:26:70
FILE "05 Mariescia.wav" WAVE INDEX 01 00:00:00 TRACK 06 AUDIO TITLE "Frankenstein & Igor" PERFORMER "Roy Campbell" INDEX 00 05:50:30
FILE "06 Frankenstein & Igor.wav" WAVE INDEX 01 00:00:00 TRACK 07 AUDIO TITLE "Peace" PERFORMER "Roy Campbell" INDEX 00 08:41:30
FILE "07 Peace.wav" WAVE INDEX 01 00:00:00 TRACK 08 AUDIO TITLE "Spiritual Rejuvenation" PERFORMER "Roy Campbell" INDEX 00 03:46:67
FILE "08 Spiritual Rejuvenation.wav" WAVE INDEX 01 00:00:00
Приватный:
Нет (DHT включён)
Размер:
368.51 Мб (386,413,547 байт) » файлов: 14
Участники:
0 раздают, 0 качают (0 участников всего)
Внешние участники:
1 раздают, 0 качают (1 участников всего) [ Обновить ]
17:40
151
RSS
Нет комментариев. Ваш будет первым!