Поиск

1959 (2006) Harry Lookofsky - Stringsville {Collectables COL-CD-7792}

1959 (2006) Harry Lookofsky - Stringsville {Collectables COL-CD-7792}
Страна-производитель диска (релиза):
USA
Дата издания диска:
1959
Дата переиздания диска:
2006
Издатель (лейбл):
Номер по каталогу:
COL-CD-7792 (SD 1319)
Носитель:
CD
Битрейт аудио:
lossless
Аудиокодек:
FLAC (*.flac)
Тип рипа:
tracks+.cue
Время звучания:
34:33
Наличие сканов:
  • да
Релизёр (источник):
ruskaval

Состав:

01  'Round Midnight                     03:44 
02  Moose The Mooche                    05:25 
03  I Let A Song Go Out Of My Heart     03:18 
04  Little Willie Leaps                 04:31 
05  Move                                02:43 
06  Champagne Blues                     05:12 
07  Give Me The Simple Life             05:03 
08  Dancing On The Grave                04:37 

Лог создания рипа
Exact Audio Copy V1.1 from 23. June 2015
EAC extraction logfile from 19. November 2016, 13:20
Harry Lookofsky / Stringsville
Used drive : MATSHITADVD+-RW SW830 Adapter: 1 ID: 0
Read mode : Secure
Utilize accurate stream : Yes
Defeat audio cache : Yes
Make use of C2 pointers : No
Read offset correction : 6
Overread into Lead-In and Lead-Out : No
Fill up missing offset samples with silence : Yes
Delete leading and trailing silent blocks : No
Null samples used in CRC calculations : Yes
Used interface : Native Win32 interface for Win NT & 2000
Gap handling : Appended to previous track
Used output format : User Defined Encoder
Selected bitrate : 896 kBit/s
Quality : High
Add ID3 tag : No
Command line compressor : C:\Program Files (x86)\Exact Audio Copy\Flac\flac.exe
Additional command line options : -8 -V -T "ARTIST=%artist%" -T "TITLE=%title%" -T "ALBUM=%albumtitle%" -T "DATE=%year%" -T "TRACKNUMBER=%tracknr%" -T "TOTALTRACKS=%numtracks%" -T "GENRE=%genre%" -T "ALBUMARTIST=%albumartist%" -T "ALBUM ARTIST=%albumartist%" -T "COMMENT=EAC Secure Mode, Test & Copy, AccurateRip, FLAC -8" %source%
TOC of the extracted CD Track | Start | Length | Start sector | End sector --------------------------------------------------------- 1 | 0:00.00 | 3:44.03 | 0 | 16802 2 | 3:44.03 | 5:25.35 | 16803 | 41212 3 | 9:09.38 | 3:17.67 | 41213 | 56054 4 | 12:27.30 | 4:30.67 | 56055 | 76371 5 | 16:58.22 | 2:43.02 | 76372 | 88598 6 | 19:41.24 | 5:12.15 | 88599 | 112013 7 | 24:53.39 | 5:02.52 | 112014 | 134715 8 | 29:56.16 | 4:37.15 | 134716 | 155505
Track 1 Filename G:\New Rips\Harry Lookofsky - Stringsville (1960) [FLAC]\01 - Round Midnight.wav Pre-gap length 0:00:02.00 Peak level 100.0 % Extraction speed 1.8 X Track quality 100.0 % Test CRC 4D3BBE95 Copy CRC 4D3BBE95 Accurately ripped (confidence 2) [2EFA72CD] (AR v2) Copy OK
Track 2 Filename G:\New Rips\Harry Lookofsky - Stringsville (1960) [FLAC]\02 - Moose The Mooche.wav Pre-gap length 0:00:02.00 Peak level 100.0 % Extraction speed 2.1 X Track quality 100.0 % Test CRC 18CBB7B7 Copy CRC 18CBB7B7 Accurately ripped (confidence 2) [4B043182] (AR v2) Copy OK
Track 3 Filename G:\New Rips\Harry Lookofsky - Stringsville (1960) [FLAC]\03 - I Let A Song Go Out Of My Heart.wav Pre-gap length 0:00:02.00 Peak level 100.0 % Extraction speed 1.6 X Track quality 99.9 % Test CRC 531EA901 Copy CRC 531EA901 Accurately ripped (confidence 2) [9B07E126] (AR v2) Copy OK
Track 4 Filename G:\New Rips\Harry Lookofsky - Stringsville (1960) [FLAC]\04 - Little Willie Leaps.wav Pre-gap length 0:00:02.00 Peak level 100.0 % Extraction speed 1.9 X Track quality 99.9 % Test CRC DE0DD215 Copy CRC DE0DD215 Accurately ripped (confidence 2) [D0235716] (AR v2) Copy OK
Track 5 Filename G:\New Rips\Harry Lookofsky - Stringsville (1960) [FLAC]\05 - Move.wav Pre-gap length 0:00:02.00 Peak level 100.0 % Extraction speed 1.7 X Track quality 99.9 % Test CRC 26928157 Copy CRC 26928157 Accurately ripped (confidence 2) [0CEE8278] (AR v2) Copy OK
Track 6 Filename G:\New Rips\Harry Lookofsky - Stringsville (1960) [FLAC]\06 - Champagne Blues.wav Pre-gap length 0:00:02.00 Peak level 100.0 % Extraction speed 2.8 X Track quality 100.0 % Test CRC 0A0E3F63 Copy CRC 0A0E3F63 Accurately ripped (confidence 2) [4ECBE993] (AR v2) Copy OK
Track 7 Filename G:\New Rips\Harry Lookofsky - Stringsville (1960) [FLAC]\07 - Give Me The Simple Life.wav Pre-gap length 0:00:02.00 Peak level 100.0 % Extraction speed 2.9 X Track quality 100.0 % Test CRC 588FE55F Copy CRC 588FE55F Accurately ripped (confidence 2) [5B385D17] (AR v2) Copy OK
Track 8 Filename G:\New Rips\Harry Lookofsky - Stringsville (1960) [FLAC]\08 - Dancing On The Grave.wav Pre-gap length 0:00:02.00 Peak level 100.0 % Extraction speed 2.4 X Track quality 99.9 % Test CRC 62A0B00A Copy CRC 62A0B00A Accurately ripped (confidence 2) [209312B0] (AR v2) Copy OK
All tracks accurately ripped
No errors occurred
End of status report
---- CUETools DB Plugin V2.1.6
[CTDB TOCID: 3FLC.9rUGfOWI_kI5WGVVq2rpHY-] disk not present in database
Submit result: 3FLC.9rUGfOWI_kI5WGVVq2rpHY- has been uploaded
==== Log checksum E1645BFC4C01854F622F43EBA689DA4D8280E31BCEE6B21BE33B4A3288CE2F66 ====
Содержание индексной карты (.CUE)
REM GENRE Jazz
REM DATE 1960
REM DISCID 67081908
REM COMMENT "ExactAudioCopy v1.1"
PERFORMER "Harry Lookofsky"
TITLE "Stringsville"
FILE "01 - Round Midnight.wav" WAVE TRACK 01 AUDIO TITLE "Round Midnight" PERFORMER "Harry Lookofsky" INDEX 01 00:00:00 TRACK 02 AUDIO TITLE "Moose The Mooche" PERFORMER "Harry Lookofsky" INDEX 00 03:42:03
FILE "02 - Moose The Mooche.wav" WAVE INDEX 01 00:00:00 TRACK 03 AUDIO TITLE "I Let A Song Go Out Of My Heart" PERFORMER "Harry Lookofsky" INDEX 00 05:23:35
FILE "03 - I Let A Song Go Out Of My Heart.wav" WAVE INDEX 01 00:00:00 TRACK 04 AUDIO TITLE "Little Willie Leaps" PERFORMER "Harry Lookofsky" INDEX 00 03:15:67
FILE "04 - Little Willie Leaps.wav" WAVE INDEX 01 00:00:00 TRACK 05 AUDIO TITLE "Move" PERFORMER "Harry Lookofsky" INDEX 00 04:28:67
FILE "05 - Move.wav" WAVE INDEX 01 00:00:00 TRACK 06 AUDIO TITLE "Champagne Blues" PERFORMER "Harry Lookofsky" INDEX 00 02:41:02
FILE "06 - Champagne Blues.wav" WAVE INDEX 01 00:00:00 TRACK 07 AUDIO TITLE "Give Me The Simple Life" PERFORMER "Harry Lookofsky" INDEX 00 05:10:15
FILE "07 - Give Me The Simple Life.wav" WAVE INDEX 01 00:00:00 TRACK 08 AUDIO TITLE "Dancing On The Grave" PERFORMER "Harry Lookofsky" INDEX 00 05:00:52
FILE "08 - Dancing On The Grave.wav" WAVE INDEX 01 00:00:00
Приватный:
Нет (DHT включён)
Размер:
211.25 Мб (221,509,186 байт) » файлов: 19
Участники:
0 раздают, 0 качают (0 участников всего)
Внешние участники:
2 раздают, 1 качают (3 участников всего) [ Обновить ]
19:50
188
RSS
Нет комментариев. Ваш будет первым!