Поиск

1962 (1990) Art Blakey & The Jazz Messengers - Three Blind Mice (2CD)

1962 (1990) Art Blakey & The Jazz Messengers - Three Blind Mice (2CD)
Стили:
Страна-производитель диска (релиза):
USA
Дата записи диска:
август 1961 - март 1962
Дата издания диска:
1962
Дата переиздания диска:
4 сентября 1990
Издатель (лейбл):
Номер по каталогу:
CDP 7 84451 2 / CDP 7 84452 2
Носитель:
CD
Битрейт аудио:
lossless
Аудиокодек:
FLAC (*.flac)
Тип рипа:
tracks+.cue
Время звучания:
54:21 + 63:02
Наличие сканов:
  • да
Релизёр (источник):
mironov_ad
Состав:
  • Art Blakey (drums)
  • Jumie Merrit (bass)
  • Freddie Hubbard (Trumpet)
  • Curtis Fuller (Trombone)
  • Wayne Shorter (Sax (Tenor))
  • Cedar Walton (Piano)

Volume 1:
01. Three Blind Mice (Fuller) 8:20
02. Blue Moon (Hart, Rodgers) 6:01
03. That Old Feeling (Brown, Fain) 6:36
04. Plexis (Walton) 5:51
05. Up Jumped Spring (Hubbard) 9:48
06. Up Jumped Spring [alternate take] (Hubbard) 5:18
07. When Lights Are Low (Carter) 4:11
08. Children of the Night (Shorter) 8:13

Volume 2:
01. It's Only a Paper Moon (Arlen, Harburg, Rose) 13:27
02. Mosaic (Walton) 12:30
03. Ping Pong (Shorter) 12:24
04. The Promised Land (Walton) 13:13
05. Arabia (Fuller) 11:25

Лог создания рипа
<spoiler title="CD 01"><pre>EAC extraction logfile from 15. October 2006, 9:50 for CD
Art Blakey / Three Blind Mice. Vol. 1
Used drive : PLEXTOR CD-R PX-W4824A Adapter: 1 ID: 0
Read mode : Secure with NO C2, accurate stream, disable cache
Read offset correction : 98
Overread into Lead-In and Lead-Out : Yes
Used output format : C:\Program Files\Exact Audio Copy\flac.exe (User Defined Encoder)
320 kBit/s
Additional command line options : -8 -V -T "artist=%a" -T "title=%t" -T "album=%g" -T "date=%y" -T "tracknumber=%n" -T "genre=%m" -T "comment=EAC Flac 1.1.2a -8" %s
Other options :
Fill up missing offset samples with silence : Yes
Delete leading and trailing silent blocks : No
Native Win32 interface for Win NT & 2000
Track 1
Filename E:\05_NEW RIPS\Art Blakey - Three Blind Mice. Vol. 1\01 - Three Blind Mice (Art Blakey - Three Blind Mice. Vol. 1).wav
Pre-gap length 0:00:02.42
Peak level 91.8 %
Track quality 100.0 %
Test CRC C64E54A1
Copy CRC C64E54A1
Copy OK
Track 2
Filename E:\05_NEW RIPS\Art Blakey - Three Blind Mice. Vol. 1\02 - Blue Moon (Art Blakey - Three Blind Mice. Vol. 1).wav
Pre-gap length 0:00:02.46
Peak level 81.2 %
Track quality 100.0 %
Test CRC 1A9E2F8E
Copy CRC 1A9E2F8E
Copy OK
Track 3
Filename E:\05_NEW RIPS\Art Blakey - Three Blind Mice. Vol. 1\03 - That Old Feeling (Art Blakey - Three Blind Mice. Vol. 1).wav
Pre-gap length 0:00:01.73
Peak level 87.5 %
Track quality 100.0 %
Test CRC F2F15E03
Copy CRC F2F15E03
Copy OK
Track 4
Filename E:\05_NEW RIPS\Art Blakey - Three Blind Mice. Vol. 1\04 - Plexis (Art Blakey - Three Blind Mice. Vol. 1).wav
Pre-gap length 0:00:02.29
Peak level 85.3 %
Track quality 100.0 %
Test CRC A17316D5
Copy CRC A17316D5
Copy OK
Track 5
Filename E:\05_NEW RIPS\Art Blakey - Three Blind Mice. Vol. 1\05 - Up Jumped Spring (Art Blakey - Three Blind Mice. Vol. 1).wav
Pre-gap length 0:00:01.86
Peak level 81.2 %
Track quality 100.0 %
Test CRC 669408B7
Copy CRC 669408B7
Copy OK
Track 6
Filename E:\05_NEW RIPS\Art Blakey - Three Blind Mice. Vol. 1\06 - Up Jumped Spring (alt tk) (Art Blakey - Three Blind Mice. Vol. 1).wav
Pre-gap length 0:00:01.97
Peak level 88.1 %
Track quality 99.9 %
Test CRC 68B29FDC
Copy CRC 68B29FDC
Copy OK
Track 7
Filename E:\05_NEW RIPS\Art Blakey - Three Blind Mice. Vol. 1\07 - When Lights Are Low (Art Blakey - Three Blind Mice. Vol. 1).wav
Pre-gap length 0:00:02.60
Peak level 86.0 %
Track quality 100.0 %
Test CRC 3774E005
Copy CRC 3774E005
Copy OK
Track 8
Filename E:\05_NEW RIPS\Art Blakey - Three Blind Mice. Vol. 1\08 - Children of the Night (Art Blakey - Three Blind Mice. Vol. 1).wav
Pre-gap length 0:00:02.20
Peak level 89.7 %
Track quality 100.0 %
Test CRC DBD50E26
Copy CRC DBD50E26
Copy OK
No errors occured
End of status report</pre></spoiler><spoiler title="CD 02"><pre>EAC extraction logfile from 13. November 2006, 7:47 for CD
Art Blakey / Three Blind Mice. Vol. 2
Used drive : PLEXTOR CD-R PX-W4824A Adapter: 1 ID: 0
Read mode : Secure with NO C2, accurate stream, disable cache
Read offset correction : 98
Overread into Lead-In and Lead-Out : Yes
Used output format : C:\Program Files\Exact Audio Copy\flac.exe (User Defined Encoder)
320 kBit/s
Additional command line options : -8 -V -T "artist=%a" -T "title=%t" -T "album=%g" -T "date=%y" -T "tracknumber=%n" -T "genre=%m" -T "comment=EAC Flac 1.1.2a -8" %s
Other options :
Fill up missing offset samples with silence : Yes
Delete leading and trailing silent blocks : No
Native Win32 interface for Win NT & 2000
Track 1
Filename E:\05_NEW RIPS\Art Blakey - Three Blind Mice. Vol. 2\01 - It's Only a Paper Moon (Art Blakey - Three Blind Mice. Vol. 2).wav
Pre-gap length 0:00:02.42
Peak level 84.7 %
Track quality 99.9 %
Test CRC D291513C
Copy CRC D291513C
Copy OK
Track 2
Filename E:\05_NEW RIPS\Art Blakey - Three Blind Mice. Vol. 2\02 - Mosaic (Art Blakey - Three Blind Mice. Vol. 2).wav
Pre-gap length 0:00:01.64
Peak level 91.2 %
Track quality 100.0 %
Test CRC 377ACB9D
Copy CRC 377ACB9D
Copy OK
Track 3
Filename E:\05_NEW RIPS\Art Blakey - Three Blind Mice. Vol. 2\03 - Ping Pong (Art Blakey - Three Blind Mice. Vol. 2).wav
Pre-gap length 0:00:02.84
Peak level 83.6 %
Track quality 100.0 %
Test CRC 88C3ED42
Copy CRC 88C3ED42
Copy OK
Track 4
Filename E:\05_NEW RIPS\Art Blakey - Three Blind Mice. Vol. 2\04 - The Promised Land (Art Blakey - Three Blind Mice. Vol. 2).wav
Pre-gap length 0:00:02.56
Peak level 84.2 %
Track quality 100.0 %
Test CRC AC3D8485
Copy CRC AC3D8485
Copy OK
Track 5
Filename E:\05_NEW RIPS\Art Blakey - Three Blind Mice. Vol. 2\05 - Arabia (Art Blakey - Three Blind Mice. Vol. 2).wav
Pre-gap length 0:00:02.42
Peak level 85.3 %
Track quality 100.0 %
Test CRC 67C435DA
Copy CRC 67C435DA
Copy OK
No errors occured
End of status report</pre></spoiler>
18:51
136
RSS
Нет комментариев. Ваш будет первым!