Поиск

1972 (1999) Jimmy Smith - Root Down

1972 (1999) Jimmy Smith - Root Down
Стили:
Страна-производитель диска (релиза):
USA
Дата записи диска:
8 февраля 1972
Дата издания диска:
1972
Дата переиздания диска:
1999
Издатель (лейбл):
Номер по каталогу:
559 805-2
Носитель:
CD
Битрейт аудио:
lossless
Аудиокодек:
FLAC (*.flac)
Тип рипа:
image+.cue
Время звучания:
41:52
Наличие сканов:
  • да
Релизёр (источник):
_tonya_
Состав:
  • Jimmy Smith — H/artists//artists//artists//artists//artists//artists//artists//artists//artists//artists//artists//artists//artists//artists//artists//artists//artists//artists//artists//artists//artists//artists//artists//artists//artists//artists//artists//artists//artists//artists//artists//artists//artists//artists/amm.html">AMM
  • .html">AMM
.html">AMM.html">AMM.html">AMM.html">AMM.html">AMM.html">AMM.html">AMM.html">AMM.html">AMM.html">AMM.html">AMM.html">AMM.html">AMM.html">AMM.html">AMM.html">AMM.html">AMM.html">AMM.html">AMM.html">AMM.html">AMM.html">AMM.html">AMM.html">AMM.html">AMM.html">AMM.html">AMM.html">AMM.html">AMM.html">AMM.html">AMM.html">AMM.html">AMM.html">AMM.html">AMM.html">AMM.html">AMM.html">AMM.html">AMM.html">AMM.html">AMM.html">AMM.html">AMM.html">AMM.html">AMM.html">AMM-88.html">AMM-88.html">AMM-88.html">AMM-88.html">AMM-88.html">AMM-88.html">AMM-88.html">AMM-88.html">AMM-88.html">AMM-88.html">AMM-88.html">AMM-88.html">AMM-88.html">AMM-88.html">AMM-88.html">AMM-88.html">AMM-88.html">AMM-88.html">AMM-88.html">AMM-88.html">AMMond B3 organ Arthur Adams — guitar Wilton Felder — bass Buck Clarke — congos & percussion Paul Humphrey — drums Steve Williams — harmonica
Японский CD-ремастер оригинального одноимённого винила c записью живого выcтупления Смита в «Bicycle Club», Los Angeles 8 февраля 1972 года.

01. Sagg Shootin' His Arrow — 7:09
02. For Everyone Under The Sun — 5:56
03. After Hours — 7:45
04. Root Down (And Get It) — 7:44
05. Let's Stay Together — 6:30
06. Slow Down Sagg — 6:43

Лог создания рипа
Exact Audio Copy V0.99 prebeta 3 from 28. July 2007
EAC extraction logfile from 24. September 2007, 14:13
Jimmy Smith / Root Down
Used drive : ASUS DRW-1608P Adapter: 1 ID: 0
Read mode : Secure
Utilize accurate stream : Yes
Defeat audio cache : Yes
Make use of C2 pointers : No
Read offset correction : 48
Overread into Lead-In and Lead-Out : No
Fill up missing offset samples with silence : Yes
Delete leading and trailing silent blocks : No
Null samples used in CRC calculations : Yes
Used interface : Native Win32 interface for Win NT & 2000
Used output format : Internal WAV Routines
Sample format : 44.100 Hz; 16 Bit; Stereo
TOC of the extracted CD
Track | Start | Length | Start sector | End sector
---------------------------------------------------------
1 | 0:00.00 | 7:09.37 | 0 | 32211
2 | 7:09.37 | 5:56.63 | 32212 | 58974
3 | 13:06.25 | 7:45.62 | 58975 | 93911
4 | 20:52.12 | 7:44.08 | 93912 | 128719
5 | 28:36.20 | 6:30.10 | 128720 | 157979
6 | 35:06.30 | 6:43.57 | 157980 | 188261
Range status and errors
Selected range
Filename C:\Jimmy Smith - Root Down.wav
Peak level 100.0 %
Range quality 100.0 %
Copy CRC 3174BC4F
Copy OK
No errors occurred
End of status report
Содержание индексной карты (.CUE)
REM DISCID 4909CE06
REM COMMENT "ExactAudioCopy v0.99pb3"
PERFORMER "Jimmy Smith"
TITLE "Root Down"
FILE "Jimmy Smith - Root Down.wav" WAVE
TRACK 01 AUDIO
TITLE "Sagg Shootin' His Arrow"
PERFORMER "Jimmy Smith"
INDEX 01 00:00:00
TRACK 02 AUDIO
TITLE "For Everyone Under the Sun"
PERFORMER "Jimmy Smith"
INDEX 00 07:08:28
INDEX 01 07:09:37
TRACK 03 AUDIO
TITLE "After Hours"
PERFORMER "Jimmy Smith"
INDEX 00 13:05:45
INDEX 01 13:06:25
TRACK 04 AUDIO
TITLE "Root Down (And Get It)"
PERFORMER "Jimmy Smith"
INDEX 00 20:51:32
INDEX 01 20:52:12
TRACK 05 AUDIO
TITLE "Let's Stay Together"
PERFORMER "Jimmy Smith"
INDEX 01 28:36:20
TRACK 06 AUDIO
TITLE "Slow Down Sagg"
PERFORMER "Jimmy Smith"
INDEX 01 35:06:30
Лог проверки качества
<spoiler title="auCDtect">C:\>auCDtect.exe -m0 "Jimmy Smith - Root Down.wav"
auCDtect: CD records authenticity detector, version 0.8.2
Copyright (c) 2004 Oleg Berngardt. All rights reserved.
Copyright (c) 2004 Alexander Djourik. All rights reserved.
------------------------------------------------------------
Processing file: [Jimmy Smith - Root Down.wav]
Data analysis: [100%]
------------------------------------------------------------
This track looks like CDDA with probability 100%</spoiler>
Приватный:
Нет (DHT включён)
Размер:
246.07 Мб (258,018,840 байт) » файлов: 5
Участники:
8 раздают, 1 качают (9 участников всего)
Внешние участники:
1 раздают, 0 качают (1 участников всего) [ Обновить ]
Скорость:
139.75 Кб/c 0/c
15:19
166
RSS
Нет комментариев. Ваш будет первым!