Поиск

1960 Wild Bill Davis & His Orchestra - Dis Heah (This Here) (2019) {Everest} [24-44.1]

1960 Wild Bill Davis & His Orchestra - Dis Heah (This Here) (2019) {Everest} [24-44.1]
Стили:
Дата издания диска:
27 ноября 1958
Номер по каталогу:
SDBR 1125
Носитель:
WEB
Формат:
PCM
Тип рипа:
tracks
Контейнер:
FLAC (*.flac)
Количество каналов:
2.0
Разрядность/ЧД:
24/44,1
Битрейт аудио:
lossless
Время звучания:
00:36:49
Наличие сканов:
только обложка

01 - Wenkie 03:31
02 - Cherokee 03:58
03 - What's New 02:40
04 - Dis Heah (This Here) 05:27
05 - Theme from Mr. Lucky 02:59
06 - St. Louis Blues 03:21
07 - Ebb Tide 03:36
08 - Like Young 03:44
09 - Jo-Do 04:07
10 - Angel Eyes 03:26

Состав:

& His Orchestra

Лог проверки качества
foobar2000 1.4.3 / Dynamic Range Meter 1.1.1
log date: 2021-09-26 12:54:06
--------------------------------------------------------------------------------
Analyzed: Wild Bill Davis & His Orchestra / Dis Heah (This Here)
--------------------------------------------------------------------------------
DR         Peak         RMS     Duration Track
--------------------------------------------------------------------------------
DR10      -1.17 dB   -12.31 dB      3:32 01-Wenkie
DR9       -1.17 dB   -11.15 dB      3:58 02-Cherokee
DR10      -1.17 dB   -12.67 dB      2:40 03-What's New
DR10      -1.17 dB   -12.54 dB      5:28 04-Dis Heah (This Here)
DR9       -1.17 dB   -12.50 dB      2:59 05-Theme from Mr. Lucky
DR9       -1.17 dB   -12.50 dB      3:21 06-St. Louis Blues
DR9       -1.17 dB   -13.38 dB      3:37 07-Ebb Tide
DR9       -1.17 dB   -11.62 dB      3:44 08-Like Young
DR9       -1.17 dB   -11.34 dB      4:08 09-Jo-Do
DR9       -1.17 dB   -13.16 dB      3:27 10-Angel Eyes
--------------------------------------------------------------------------------
Number of tracks:  10
Official DR value: DR9
Samplerate:        44100 Hz
Channels:          2
Bits per sample:   24
Bitrate:           1166 kbps
Codec:             FLAC
================================================================================
15:25
418
Нет комментариев. Ваш будет первым!