Поиск

1960 Johnny Hodges - Johnny Hodges ft. Ben Webster {2xHD} [24-96]

1960 Johnny Hodges - Johnny Hodges ft. Ben Webster {2xHD} [24-96]
Дата записи диска:
22 ноября 1960; 27 августа 1964
Место записи:
The Jazz Cellar, San Francisco, USA
Издатель (лейбл):
Носитель:
WEB
Формат:
PCM
Тип рипа:
tracks
Контейнер:
FLAC (*.flac)
Количество каналов:
2.0
Разрядность/ЧД:
24/96
Битрейт аудио:
lossless
Время звучания:
00:39:50
Наличие сканов:
только обложка

01 - Cambridge Blue 03:43
02 - Brute's Roots 04:35
03 - Bouncing with Ben 02:52
04 - One for the Duke 05:18
05 - Walkin' the Frog 05:50
06 - Rabbit Pie 04:54
07 - Jeep's Blues 02:36
08 - Dooji Wooji 04:07
09 - The Jeep Is Jumpin' 06:04

Состав:

The Jazz Cellar, San Francisco, November 22 1960 (1-6):
Ben Webster, tenor saxophone
Johnny Hodges, alto saxophone
Lou Levy, piano
Herb Ellis, guitar
Wilfred Middlebrooks, bass
Gus Johnson, drums
Rare Octet Session, August 27, 1964 (7-9):
Ray Nance, trumpet
Lawrence Brown, trombone
Emil Richards, vibraphone
Russ Freeman, piano
Joe Mondragon, bass
Mel Lewis, drums

Лог проверки качества
foobar2000 1.4.3 / Dynamic Range Meter 1.1.1
log date: 2021-08-14 15:11:29
--------------------------------------------------------------------------------
Analyzed: Johnny Hodges / Johnny Hodges featuring Ben Webster
--------------------------------------------------------------------------------
DR         Peak         RMS     Duration Track
--------------------------------------------------------------------------------
DR11      -2.11 dB   -15.49 dB      3:43 01-Cambridge Blue
DR12      -2.65 dB   -17.58 dB      4:35 02-Brute's Roots
DR11      -1.77 dB   -15.81 dB      2:53 03-Bouncing with Ben
DR12      -3.01 dB   -18.06 dB      5:18 04-One for the Duke
DR12      -1.90 dB   -16.67 dB      5:50 05-Walkin' the Frog
DR12      -2.48 dB   -16.34 dB      4:54 06-Rabbit Pie
DR11      -5.52 dB   -19.70 dB      2:37 07-Jeep's Blues
DR11      -6.42 dB   -21.02 dB      4:07 08-Dooji Wooji
DR13      -6.94 dB   -21.66 dB      6:05 09-The Jeep Is Jumpin'
--------------------------------------------------------------------------------
Number of tracks:  9
Official DR value: DR12
Samplerate:        88200 Hz
Channels:          2
Bits per sample:   24
Bitrate:           2408 kbps
Codec:             FLAC
================================================================================
14:31
483
Нет комментариев. Ваш будет первым!