Поиск

2015 Fausto Mesolella - Canto Stefano {Bonsaï Music} [24-44.1]

2015 Fausto Mesolella - Canto Stefano {Bonsaï Music} [24-44.1]
Стили:
Издатель (лейбл):
Носитель:
WEB
Формат:
PCM
Тип рипа:
tracks
Контейнер:
FLAC (*.flac)
Количество каналов:
2.0
Разрядность/ЧД:
24/44,1
Битрейт аудио:
lossless
Наличие сканов:
только обложка

01. Anima  04:20
02. Quello che non voglio  03:59
03. La giraffa  00:11
04. Tulipani  03:57
05. Ghemmà  04:43
06. Non disprezzare  02:20
07. Tango Perpendicular  03:07
08. L'insanguinata  04:03
09. Van Gogh  03:42
10. DormiLiù   02:30
11. Farewell  04:26
12. La domenica della vita  05:00
13. Lo Ti Amo  01:43

Состав:
  • Fausto Mesolella — vocals, guitar, bass
  • Stefano Benni — vocals
  • Mimi Ciaramella — drums
  • Ferdinando Ghidelli — pedal steel guitar
  • Almerigo Pota — trumpet, filicorno
  • Ferruccio Spinetti — bass
Лог проверки качества
foobar2000 1.6.10 / Dynamic Range Meter 1.1.1
log date: 2022-04-19 14:56:47

--------------------------------------------------------------------------------
Analyzed: Fausto Mesolella / CantoStefano
--------------------------------------------------------------------------------

DR         Peak         RMS     Duration Track
--------------------------------------------------------------------------------
DR10      -1.61 dB   -13.87 dB      4:21 01-Anima
DR8       -0.56 dB   -10.55 dB      3:59 02-Quello che non voglio
DR15      -3.90 dB   -21.44 dB      0:10 03-La giraffa
DR8       -0.21 dB   -10.08 dB      3:58 04-Tulipani
DR8       -0.09 dB    -9.92 dB      4:45 05-Ghemmà
DR14       0.00 dB   -19.26 dB      2:20 06-Non disprezzare (feat. Stefano Benni)
DR9       -0.28 dB   -11.56 dB      3:08 07-Tango perpendicular
DR9       -0.36 dB   -10.69 dB      4:04 08-L'insanguinata
DR9       -0.42 dB   -11.73 dB      3:42 09-Van Gogh (feat. Stefano Benni)
DR10       0.00 dB   -13.42 dB      2:30 10-DormiLiù
DR9       -0.06 dB   -12.43 dB      4:27 11-Farewell
DR10      -1.01 dB   -11.96 dB      3:06 12-La domenica della vita (feat. Stefano Benni)
DR11      -1.11 dB   -14.27 dB      1:44 13-Io ti amo (feat. Stefano Benni)
--------------------------------------------------------------------------------

Number of tracks:  13
Official DR value: DR10

Samplerate:        44100 Hz
Channels:          2
Bits per sample:   24
Bitrate:           1486 kbps
Codec:             FLAC
================================================================================
Приватный:
Да (DHT отключён)
Размер:
471.56 Мб (494,465,088 байт) » файлов: 17
Участники:
92 раздают, 0 качают (92 участников всего)
Внешние участники:
--- [ Обновить ]
19:17
620
Нет комментариев. Ваш будет первым!