Поиск

2021 Nova - Live at Pali Wine {Velvet Mind Group} [24-48]

2021 Nova - Live at Pali Wine {Velvet Mind Group} [24-48]
Носитель:
WEB
Формат:
PCM
Тип рипа:
tracks
Контейнер:
FLAC (*.flac)
Количество каналов:
2.0
Разрядность/ЧД:
24/48
Битрейт аудио:
lossless
Время звучания:
00:36:58
Наличие сканов:
только обложка

01 - Agua De Beber
02 - Chega de Saudade
03 - Desafinado
04 - Flor De Lis
05 - Mas Que Nada
06 - One Note Samba
07 - So Danco Samba
08 - Wave

Лог проверки качества
foobar2000 1.3.17 / Замер динамического диапазона (DR) 1.1.1
--------------------------------------------------------------------------------
Анализ:   ? / ?
--------------------------------------------------------------------------------
DR         Пики         RMS           Продолжительность трека
--------------------------------------------------------------------------------
DR13      -0.87 дБ   -17.28 дБ      4:59 ?-NOVA - Agua De Beber
DR14      -1.90 дБ   -19.12 дБ      4:32 ?-NOVA - Chega de Saudade
DR13      -1.16 дБ   -17.54 дБ      4:55 ?-NOVA - Desafinado
DR12      -0.27 дБ   -16.53 дБ      4:06 ?-NOVA - Flor De Lis
DR9        0.00 дБ   -13.28 дБ      4:16 ?-NOVA - Mas Que Nada
DR14      -0.22 дБ   -16.74 дБ      4:20 ?-NOVA - One Note Samba
DR15      -0.05 дБ   -17.91 дБ      3:11 ?-NOVA - So Danco Samba
DR15      -0.45 дБ   -18.31 дБ      6:39 ?-NOVA - Wave
--------------------------------------------------------------------------------
Количество треков: 8
Реальные значения DR: DR13
Частота:   48000 Гц
Каналов:   2
Разрядность:   24
Битрейт:   1691 кбит/с
Кодек:   FLAC
================================================================================
Приватный:
Нет (DHT включён)
Размер:
450.02 Мб (471,882,072 байт) » файлов: 9
Участники:
0 раздают, 0 качают (0 участников всего)
Внешние участники:
1 раздают, 0 качают (1 участников всего) [ Обновить ]
19:39
416
Нет комментариев. Ваш будет первым!