Поиск

1960 Jimmy Hamilton And His Orchestra - Swing Low Sweet Clarinet (2019) {Everest} [24-44.1]

1960 Jimmy Hamilton And His Orchestra - Swing Low Sweet Clarinet (2019) {Everest} [24-44.1]
Дата издания диска:
15 ноября 1960
Носитель:
WEB
Формат:
PCM
Тип рипа:
tracks
Контейнер:
FLAC (*.flac)
Количество каналов:
2.0
Разрядность/ЧД:
24/44,1
Битрейт аудио:
lossless
Время звучания:
00:35:23
Наличие сканов:
только обложка

01 - I've Got the World on a String 03:24
02 - Do Nothing 'Til You Hear from Me 02:46
03 - Tempo de Brazilia 02:15
04 - The Nearness of You 04:20
05 - Blue Room 05:07
06 - Ain't She Sweet 02:29
07 - I Didn't Know About You 02:53
08 - Taj Mahal 03:37
09 - In a Sentimental Mood 05:12
10 - After You've Gone 03:20

Состав:
  • Jimmy Hamilton, clarinet
  • John Anderson, trumpet
  • Paul Gonsalves, tenor saxophone
  • Mitchell Wood, baritone horns
  • Britt Woodman, baritone horns
  • Dave Wells, baritone horns
  • Jimmy Rowles, piano
  • Aaron Bell, bass
  • Sam Woodyard, drums
Лог проверки качества
foobar2000 1.4.3 / Dynamic Range Meter 1.1.1
log date: 2021-09-20 21:51:31
--------------------------------------------------------------------------------
Analyzed: Jimmy Hamilton And His Orchestra / Swing Low Sweet Clarinet
--------------------------------------------------------------------------------
DR         Peak         RMS     Duration Track
--------------------------------------------------------------------------------
DR12      -1.17 dB   -14.30 dB      3:25 01-I've Got the World on a String
DR11      -1.20 dB   -14.76 dB      2:47 02-Do Nothing 'Til You Hear from Me
DR13      -1.82 dB   -16.55 dB      2:15 03-Tempo de Brazilia
DR10      -2.25 dB   -15.28 dB      4:20 04-The Nearness of You
DR13      -1.25 dB   -16.08 dB      5:08 05-Blue Room
DR12      -1.23 dB   -15.09 dB      2:29 06-Ain't She Sweet
DR11      -2.54 dB   -15.99 dB      2:54 07-I Didn't Know About You
DR11      -2.15 dB   -18.68 dB      3:38 08-Taj Mahal
DR11      -1.17 dB   -14.48 dB      5:12 09-In a Sentimental Mood
DR12      -1.20 dB   -15.28 dB      3:20 10-After You've Gone
--------------------------------------------------------------------------------
Number of tracks:  10
Official DR value: DR11
Samplerate:        44100 Hz
Channels:          2
Bits per sample:   24
Bitrate:           1485 kbps
Codec:             FLAC
================================================================================
Приватный:
Нет (DHT включён)
Размер:
369.29 Мб (387,231,303 байт) » файлов: 15
Участники:
3 раздают, 0 качают (3 участников всего)
Внешние участники:
--- [ Обновить ]
09:15
344
Нет комментариев. Ваш будет первым!