Поиск

2021 Randi Tytingvåg Trio - Trøstevise for redde netter - Comforting Songs for Fearful Nights {Kirkelig Kulturverksted} [24-96]

2021 Randi Tytingvåg Trio - Trøstevise for redde netter - Comforting Songs for Fearful Nights {Kirkelig Kulturverksted} [24-96]
Дата издания диска:
17 сентября 2021
Носитель:
WEB
Формат:
PCM
Тип рипа:
tracks
Контейнер:
FLAC (*.flac)
Количество каналов:
2.0
Разрядность/ЧД:
24/96
Битрейт аудио:
lossless
Время звучания:
00:34:59
Наличие сканов:
только обложка

01. Redde netter 03:06
02. Vingespenn 03:41
03. Trøstevise 03:16
04. Røtter og vinger 03:46
05. Kroppens teater 02:59
06. Uro 02:26
07. Ein engel og ei sorg 03:44
08. Liljevilje 02:24
09. Aleina 03:36
10. Hålet i ordå 02:16
11. Muren 03:40

Состав:
  • Randi Tytingvåg, vocals
  • Dag S. Vagle, guitar, backing vocals
  • Erlend Aasland, banjo, guitar, piano, backing vocals
Лог проверки качества
foobar2000 1.1.15 / Dynamic Range Meter 1.1.1
log date: 2021-09-21 00:30:00
--------------------------------------------------------------------------------
Analyzed: Randi Tytingvåg Trio / Trøsteviser for redde netter
--------------------------------------------------------------------------------
DR         Peak         RMS     Duration Track
--------------------------------------------------------------------------------
DR10      -1.02 dB   -13.40 dB      3:06 01-Redde netter
DR7       -1.02 dB   -10.00 dB      3:41 02-Vingespenn
DR8       -1.02 dB   -12.80 dB      3:17 03-Trøstevise
DR8       -1.02 dB   -11.73 dB      3:46 04-Røtter og vinger
DR8       -1.02 dB   -12.20 dB      3:00 05-Kroppens teater
DR7       -1.02 dB    -9.34 dB      2:27 06-Uro
DR10      -1.02 dB   -13.77 dB      3:45 07-Ein engel og ei sorg
DR7       -1.02 dB   -10.39 dB      2:25 08-Liljevilje
DR8       -1.02 dB   -11.13 dB      3:36 09-Aleina
DR10      -1.02 dB   -14.31 dB      2:16 10-Hålet i ordå
DR9       -1.02 dB   -14.40 dB      3:41 11-Muren
--------------------------------------------------------------------------------
Number of tracks:  11
Official DR value: DR8
Samplerate:        96000 Hz
Channels:          2
Bits per sample:   24
Bitrate:           2763 kbps
Codec:             FLAC
================================================================================
13:05
430
Нет комментариев. Ваш будет первым!