Вы используете незарегистрированную версию компонента "Вкладки"!

Поиск

1960 Ernie Wilkins Orchestra - The Big New Band of the 60's (2017) {Life Series} [24-44,1]

1960 Ernie Wilkins Orchestra - The Big New Band of the 60's (2017) {Life Series} [24-44,1]
Стили:
Битрейт аудио:
lossless
Доп. инфо:

Формат записи/Источник записи: [TR24][OF]
Издание: Remastered
Год издания/переиздания диска: 1960/2017
Издатель (лейбл): Life Series
Продолжительность: 00:35:00
Наличие сканов в содержимом раздачи: Нет

Контейнер: FLAC (*.flac)
Тип рипа: tracks
Разрядность: 24/44,1
Количество каналов: 2.0

Источник (релизер): Qobuz

Лог проверки качества
foobar2000 1.3.7 / Dynamic Range Meter 1.1.1
log date: 2019-11-13 07:12:30

--------------------------------------------------------------------------------
Analyzed: The Ernie Wilkins Orchestra / The Big New Band of the 60's
--------------------------------------------------------------------------------

DR         Peak         RMS     Duration Track
--------------------------------------------------------------------------------
DR8       -1.21 dB   -12.73 dB      3:29 01-Ernie's Blues
DR9       -1.21 dB   -12.45 dB      3:25 02-Satin Doll
DR9       -1.21 dB   -11.98 dB      1:52 03-Fascinating Rhythm
DR9       -1.21 dB   -11.93 dB      2:25 04-Very Much in Love
DR9       -1.21 dB   -12.64 dB      2:25 05-Undecided
DR7       -1.21 dB   -10.35 dB      3:28 06-Fresh Flute
DR8       -1.25 dB   -11.41 dB      2:39 07-Canadian Sunset
DR9       -1.21 dB   -13.32 dB      3:03 08-I'll Get By
DR9       -1.18 dB   -12.98 dB      3:47 09-A Swinging Serenade
DR9       -1.21 dB   -12.98 dB      3:28 10-Lover Man
DR9       -1.21 dB   -11.79 dB      1:55 11-Everything's Coming up Roses
DR9       -1.21 dB   -13.27 dB      3:11 12-Speak Low
--------------------------------------------------------------------------------

Number of tracks:  12
Official DR value: DR9

Samplerate:        44100 Hz
Channels:          2
Bits per sample:   24
Bitrate:           1546 kbps
Codec:             FLAC
================================================================================
Any questions - support@pro-jazz.com. Есть вопросы - support@pro-jazz.com
12:31
198
Нет комментариев. Ваш будет первым!