Вы используете незарегистрированную версию компонента "Вкладки"!

Поиск

2016 Sangeeta Chamuah - Deva Stuti {Inreco} [24-48]

2016 Sangeeta Chamuah - Deva Stuti {Inreco} [24-48]
Носитель:
WEB
Формат:
PCM
Тип рипа:
tracks+.cue
Контейнер:
FLAC (*.flac)
Количество каналов:
2.0
Разрядность/ЧД:
24/48
Битрейт аудио:
lossless
Время звучания:
00:45:12
Наличие сканов:
web
Страна-производитель диска (релиза):
India
Релизёр (источник):
M0p94ok
Лог проверки качества
foobar2000 1.3.16 / Dynamic Range Meter 1.1.1
log date: 2018-12-19 03:23:28

--------------------------------------------------------------------------------
Analyzed: Sangeeta Chamuah / Deva Stuti
--------------------------------------------------------------------------------

DR         Peak         RMS     Duration Track
--------------------------------------------------------------------------------
DR6        0.00 dB    -8.16 dB      7:12 01-Gaayi Ye Ganapati
DR7        0.00 dB    -8.39 dB      7:20 02-Nagendra Haraya
DR6        0.00 dB    -7.04 dB      6:56 03-Nain Bhari Dekhun
DR6        0.00 dB    -7.48 dB      5:19 04-Hara Hara Mahadeva
DR7        0.00 dB    -7.64 dB      6:04 05-Soi Rasnaa
DR6        0.00 dB    -8.37 dB      6:30 06-Joshi Rani
DR5        0.00 dB    -5.98 dB      5:52 07-Bhaj Le Re Mann
--------------------------------------------------------------------------------

Number of tracks:  7
Official DR value: DR6

Samplerate:        48000 Hz
Channels:          2
Bits per sample:   24
Bitrate:           1781 kbps
Codec:             FLAC
================================================================================
Any questions - support@pro-jazz.com. Есть вопросы - support@pro-jazz.com
13:06
218
Нет комментариев. Ваш будет первым!