Вы используете незарегистрированную версию компонента "Вкладки"!

Поиск

1960 Duke Ellington - Blues In Orbit {Columbia, Analogue Productions} (2016) [DSD64]

1960 Duke Ellington - Blues In Orbit {Columbia, Analogue Productions} (2016) [DSD64]
Стили:
Издатель (лейбл):
Номер по каталогу:
XAPJ056D64
Битрейт аудио:
lossless
Доп. инфо:

Формат записи/Источник записи: [DSD][OF]
Наличие водяных знаков: Нет
Год издания/переиздания диска: 1960
Продолжительность: 00:36:27
Наличие сканов в содержимом раздачи: Только обложка альбома

Контейнер: DSF (*.dsf)
Тип рипа: tracks
Разрядность: 64(2,8 MHz/1 Bit)
Формат: DSD
Количество каналов: 2.0
Источник (релизер): wardrobemalfunction (PS³SACD)
https://store.acousticsounds.com/d/115716/Duke_Ellington-Blues_In_Orbit-DSD_Singl...MHz64fs_Download

Лог проверки качества
=================================================
foobar2000 1.4 / Dynamic Range Meter 1.1.1
log date: 2020-07-24 17:04:34
--------------------------------------------------------------------------------
Analyzed: Duke Ellington / Blues In Orbit
--------------------------------------------------------------------------------
DR           Peak          RMS     Duration       Track
--------------------------------------------------------------------------------
DR13   -5.71 dB   -21.94 dB   2:56   01-Three J's Blues
DR12   -5.23 dB   -22.35 dB   2:39   02-Smada
DR12   -5.54 dB   -20.74 dB   3:29   03-Pie Eye's Blues
DR12   -5.95 dB   -22.64 dB   4:03   04-Sweet And Pungent
DR12   -6.41 dB   -21.35 dB   4:53   05-C Jam Blues
DR13   -5.82 dB   -21.63 dB   2:43   06-In A Mellow Tone
DR11   -8.73 dB   -24.18 dB   3:42   07-Blues In Blueprint
DR13   -6.63 dB   -24.52 dB   3:08   08-The Swingers Get The Blues Too
DR12   -5.86 dB   -21.26 dB   3:55   09-The Swinger's Jump
DR14   -6.82 dB   -24.28 dB   2:29   10-Blues In Orbit
DR12   -6.06 dB   -21.00 dB   2:30   11-Villes Ville Is The Place, Man
--------------------------------------------------------------------------------
Number of tracks: 11
Official DR value: DR12

Samplerate: 2822400 Hz / PCM Samplerate: 176400 Hz
Channels: 2
Bits per sample: 1
Bitrate: 5645 kbps
Codec: DSD64
=================================================
Any questions - support@pro-jazz.com. Есть вопросы - support@pro-jazz.com
19:47
248
Нет комментариев. Ваш будет первым!