Вы используете незарегистрированную версию компонента "Вкладки"!

Поиск

1959 Mose Allison - Autumn Song (2019) {RevOla} [24-44,1]

1959 Mose Allison - Autumn Song (2019) {RevOla} [24-44,1]
Дата записи диска:
13 февраля 1959
Место записи:
Rudy Van Gelder's Recording Studio, Englewood Cliffs, NJ, USA
Издатель (лейбл):
Битрейт аудио:
lossless
Доп. инфо:

Формат записи/Источник записи: [TR24][OF]
Издание: Remastered
Год издания/переиздания диска: 1959/2019
Издатель (лейбл): RevOla
Продолжительность: 00:34:56
Наличие сканов в содержимом раздачи: Нет

Контейнер: FLAC (*.flac)
Тип рипа: tracks
Разрядность: 24/44,1
Количество каналов: 2.0

Источник (релизер): Qobuz

Лог проверки качества
foobar2000 1.3.16 / Dynamic Range Meter 1.1.1
log date: 2019-01-18 08:57:05

--------------------------------------------------------------------------------
Analyzed: Mose Allison / Autumn Song
--------------------------------------------------------------------------------

DR         Peak         RMS     Duration Track
--------------------------------------------------------------------------------
DR15      -3.20 dB   -22.95 dB      4:12 01-Promenade (Remastered)
DR13      -3.59 dB   -21.64 dB      1:44 02-Eyesight To The Blind (Remastered)
DR15      -1.21 dB   -20.97 dB      3:40 03-It's Crazy (Remastered)
DR13      -2.90 dB   -21.96 dB      2:29 04-That's All Right (Remastered)
DR16      -1.93 dB   -21.98 dB      4:06 05-Devil In The Cane Field (Remastered)
DR16      -6.31 dB   -24.75 dB      3:08 06-Strange (Remastered)
DR14      -6.78 dB   -23.73 dB      3:43 07-Autumn Song (Remastered)
DR14      -3.90 dB   -21.67 dB      3:13 08-Do Nothin' Till You Hear From Me (Remastered)
DR17      -2.07 dB   -22.68 dB      3:06 09-Spires (Remastered)
DR15      -2.15 dB   -22.37 dB      5:39 10-Groovin' High (Remastered)
--------------------------------------------------------------------------------

Number of tracks:  10
Official DR value: DR15

Samplerate:        44100 Hz
Channels:          2
Bits per sample:   24
Bitrate:           1536 kbps
Codec:             FLAC
================================================================================
Any questions - support@pro-jazz.com. Есть вопросы - support@pro-jazz.com
10:39
228
Нет комментариев. Ваш будет первым!