Вы используете незарегистрированную версию компонента "Вкладки"!

Поиск

1959 Chet Baker - Chet (2019) {RevOla} [24-44,1]

1959 Chet Baker - Chet (2019) {RevOla} [24-44,1]
Стили:
Издатель (лейбл):
Доп. инфо:

Формат записи/Источник записи: [TR24][OF]
Издание: Remastered
Год издания/переиздания диска: 1959/2019
Издатель (лейбл): RevOla
Продолжительность: 00:50:49
Наличие сканов в содержимом раздачи: Нет

Контейнер: FLAC (*.flac)
Тип рипа: tracks
Разрядность: 24/44,1
Количество каналов: 2.0

Источник (релизер): Qobuz

Лог проверки качества
foobar2000 1.4.3 / Dynamic Range Meter 1.1.1
log date: 2019-12-10 13:55:39

--------------------------------------------------------------------------------
Analyzed: Chet Baker / Chet, STEREO!
--------------------------------------------------------------------------------

DR         Peak         RMS     Duration Track
--------------------------------------------------------------------------------
DR14      -1.41 dB   -20.63 dB      6:51 01, 01-Alone Together (Remastered)
DR14      -1.66 dB   -21.70 dB      3:35 02, 02-How High The Moon (Remastered)
DR13      -4.24 dB   -23.59 dB      4:39 03, 03-It Never Entered My Mind (Remastered)
DR12      -3.70 dB   -21.20 dB      5:16 04, 04-'Tis Autumn (Remastered)
DR12      -1.32 dB   -19.58 dB      5:15 05, 05-If You Could See Me Now (Remastered)
DR13      -4.57 dB   -24.98 dB      3:03 06, 06-September Song (Remastered)
DR13      -2.51 dB   -21.56 dB      4:30 07, 07-You'd Be So Nice To Come Home To (Remastered)
DR12      -1.19 dB   -17.53 dB      4:31 08, 08-Time On My Hands (You In My Arms) (Remastered)
DR11      -1.30 dB   -18.57 dB      4:05 09, 09-You And The Night And The Music (Remastered)
DR14      -1.59 dB   -21.15 dB      9:04 10, 10-Early Morning Mood (Remastered)
--------------------------------------------------------------------------------

Number of tracks:  10
Official DR value: DR13

Samplerate:        44100 Hz
Channels:          2
Bits per sample:   24
Bitrate:           1368 kbps
Codec:             FLAC
================================================================================
Any questions - support@pro-jazz.com. Есть вопросы - support@pro-jazz.com
19:03
242
Нет комментариев. Ваш будет первым!