Вы используете незарегистрированную версию компонента "Вкладки"!

Поиск

2019 Naissam Jalal - Om Al Aagayeb {Les Couleurs Du Son} [24-44,1]

2019 Naissam Jalal - Om Al Aagayeb {Les Couleurs Du Son} [24-44,1]
Доп. инфо:

Формат записи/Источник записи: [TR24][OF]
Наличие водяных знаков: Нет
Год издания/переиздания диска: 2019
Издатель (лейбл): Les couleurs du son
Продолжительность: 00:51:35
Источник (релизер): qobuz

Контейнер: FLAC (*.flac)
Тип рипа: tracks
Разрядность: 24/44,1
Формат: PCM
Количество каналов: 2.0

Лог проверки качества
foobar2000 1.1.15 / Dynamic Range Meter 1.1.1
log date: 2019-12-06 12:56:47

--------------------------------------------------------------------------------
Analyzed: Naïssam Jalal / Om Al Aagayeb
--------------------------------------------------------------------------------

DR         Peak         RMS     Duration Track
--------------------------------------------------------------------------------
DR16      -4.21 dB   -22.73 dB      0:09 01-Am Ahmad
DR9       -0.31 dB   -12.06 dB      5:40 02-Al Maadiya
DR9       -0.30 dB   -12.01 dB     11:15 03-Bint Al Balad
DR9       -0.28 dB   -11.48 dB      5:11 04-Ya Roh
DR9       -0.31 dB   -12.02 dB      6:03 05-Am Abdo
DR7       -0.31 dB    -9.54 dB      4:04 06-Ahl Al Nuba
DR9       -0.31 dB   -12.84 dB      7:57 07-Shagan
DR10      -0.31 dB   -13.15 dB      4:53 08-Soq Al Tnen
DR7       -0.31 dB   -10.58 dB      6:27 09-Om Al Aagayeb
--------------------------------------------------------------------------------

Number of tracks:  9
Official DR value: DR9

Samplerate:        44100 Hz
Channels:          2
Bits per sample:   24
Bitrate:           1422 kbps
Codec:             FLAC
================================================================================
Any questions - support@pro-jazz.com. Есть вопросы - support@pro-jazz.com
12:15
237
Нет комментариев. Ваш будет первым!