Поиск

1959 Art Blakey & The Jazz Messengers - Au Club St Germain, Vol. 3 (2021) {Music Manager} [24-48]

1959 Art Blakey & The Jazz Messengers - Au Club St Germain, Vol. 3 (2021) {Music Manager} [24-48]
Стили:
Дата записи диска:
21 декабря 1958
Место записи:
the Club St. Germain, Paris, France.
Дата переиздания диска:
22 июня 2021
Издатель (лейбл):
Битрейт аудио:
lossless

Состав:
Лог проверки качества
foobar2000 1.4.6 / Dynamic Range Meter 1.1.1
log date: 2021-09-22 01:57:46
--------------------------------------------------------------------------------
Analyzed: Art Blakey / Au Club St Germain
--------------------------------------------------------------------------------
DR         Peak         RMS     Duration Track
--------------------------------------------------------------------------------
DR11       0.00 dB   -13.69 dB     10:12 01-Along Came Manon (Live)
DR11      -0.01 dB   -13.06 dB     11:08 02-Out of the Past (Live)
DR8        0.00 dB   -11.69 dB     17:44 03-A Night in Tunisia (Live)
DR10      -0.22 dB   -13.06 dB      0:31 04-Ending with the Theme (Live)
--------------------------------------------------------------------------------
Number of tracks:  4
Official DR value: DR10
Samplerate:        48000 Hz
Channels:          2
Bits per sample:   24
Bitrate:           1024 kbps
Codec:             FLAC
================================================================================
Приватный:
Нет (DHT включён)
Размер:
339.25 Мб (355,731,940 байт) » файлов: 8
Участники:
0 раздают, 0 качают (0 участников всего)
Внешние участники:
--- [ Обновить ]
16:55
338
Нет комментариев. Ваш будет первым!