Поиск

1959-1962 Eddie "Lockjaw" Davis - Seven Classic Albums (2013) {Real Gone Jazz RGJCD410} [4CD]

1959-1962 Eddie "Lockjaw" Davis - Seven Classic Albums (2013) {Real Gone Jazz RGJCD410} [4CD]
Стили:
Страна-производитель диска (релиза):
EU
Дата записи диска:
1959-1962
Дата издания диска:
2013
Издатель (лейбл):
Номер по каталогу:
RGJCD410
Носитель:
CD
Аудиокодек:
FLAC (*.flac)
Тип рипа:
image+.cue
Битрейт аудио:
lossless
Время звучания:
04:38:08
Наличие сканов:
нет
Релизёр (источник):
ssagwebster
Треклист:
 
CD1 {66:13}

Very Saxy (1959)
01. Very Saxy [8:17]
02. Lester Leaps In [6:14]
03. Fourmost [5:21]
04. Foot Pattin' [8:51]
05. Light and Lovely [9:55]
Battle Stations (With Johnny Griffin) (1960)
06. What's Happenin' [6:50]
07. Abundance [6:54]
08. If I Had You [6:45]
09. 63rd Street Theme [7:11]

 
Лог создания рипа
Exact Audio Copy V1.1 from 23. June 2015
EAC extraction logfile from 15. November 2015, 18:25
Eddie Lockjaw Davis / Seven Classic Albums - CD1 - 2013 - Real Gone Jazz
Used drive  : PLEXTOR DVDR   PX-760A   Adapter: 1  ID: 1
Read mode               : Secure
Utilize accurate stream : Yes
Defeat audio cache      : Yes
Make use of C2 pointers : No
Read offset correction                      : 30
Overread into Lead-In and Lead-Out          : No
Fill up missing offset samples with silence : Yes
Delete leading and trailing silent blocks   : No
Null samples used in CRC calculations       : Yes
Used interface                              : Native Win32 interface for Win NT & 2000
Used output format              : User Defined Encoder
Selected bitrate                : 1024 kBit/s
Quality                         : High
Add ID3 tag                     : No
Command line compressor         : C:\Program Files (x86)\FLAC\flac.exe
Additional command line options : -5 -V -T "ARTIST=%artist%" -T "TITLE=%title%" -T "ALBUM=%albumtitle%" -T "DATE=%year%" -T "TRACKNUMBER=%tracknr%" -T "GENRE=%genre%" -T "COMMENT=[oStereo.ru]" %source%
TOC of the extracted CD
     Track |   Start  |  Length  | Start sector | End sector
    ---------------------------------------------------------
        1  |  0:00.00 |  8:16.19 |         0    |    37218
        2  |  8:16.19 |  6:13.26 |     37219    |    65219
        3  | 14:29.45 |  5:20.62 |     65220    |    89281
        4  | 19:50.32 |  8:50.65 |     89282    |   129096
        5  | 28:41.22 |  9:54.30 |    129097    |   173676
        6  | 38:35.52 |  6:49.06 |    173677    |   204357
        7  | 45:24.58 |  6:53.01 |    204358    |   235333
        8  | 52:17.59 |  6:44.30 |    235334    |   265663
        9  | 59:02.14 |  7:10.25 |    265664    |   297938
Range status and errors
Selected range
     Filename D:\Eddie Lockjaw Davis - Seven Classic Albums - CD1 - 2013 - Real Gone Jazz.wav
     Copy aborted
End of status report
==== Log checksum C710DDE3D7B55287C2423F076D921CE6943211AAC08D7576755AF46FB97F71D6 ====
------------------------------------------------------------
Exact Audio Copy V1.1 from 23. June 2015
EAC extraction logfile from 15. November 2015, 19:25
Eddie Lockjaw Davis / Seven Classic Albums - CD1 - 2013 - Real Gone Jazz
Used drive  : PLEXTOR DVDR   PX-760A   Adapter: 1  ID: 1
Read mode               : Secure
Utilize accurate stream : Yes
Defeat audio cache      : Yes
Make use of C2 pointers : No
Read offset correction                      : 30
Overread into Lead-In and Lead-Out          : No
Fill up missing offset samples with silence : Yes
Delete leading and trailing silent blocks   : No
Null samples used in CRC calculations       : Yes
Used interface                              : Native Win32 interface for Win NT & 2000
Used output format              : User Defined Encoder
Selected bitrate                : 1024 kBit/s
Quality                         : High
Add ID3 tag                     : No
Command line compressor         : C:\Program Files (x86)\FLAC\flac.exe
Additional command line options : -5 -V -T "ARTIST=%artist%" -T "TITLE=%title%" -T "ALBUM=%albumtitle%" -T "DATE=%year%" -T "TRACKNUMBER=%tracknr%" -T "GENRE=%genre%" -T "COMMENT=[oStereo.ru]" %source%
TOC of the extracted CD
     Track |   Start  |  Length  | Start sector | End sector
    ---------------------------------------------------------
        1  |  0:00.00 |  8:16.19 |         0    |    37218
        2  |  8:16.19 |  6:13.26 |     37219    |    65219
        3  | 14:29.45 |  5:20.62 |     65220    |    89281
        4  | 19:50.32 |  8:50.65 |     89282    |   129096
        5  | 28:41.22 |  9:54.30 |    129097    |   173676
        6  | 38:35.52 |  6:49.06 |    173677    |   204357
        7  | 45:24.58 |  6:53.01 |    204358    |   235333
        8  | 52:17.59 |  6:44.30 |    235334    |   265663
        9  | 59:02.14 |  7:10.25 |    265664    |   297938
Range status and errors
Selected range
     Filename D:\Eddie Lockjaw Davis - Seven Classic Albums - CD1 - 2013 - Real Gone Jazz.wav
     Peak level 100.0 %
     Extraction speed 1.2 X
     Range quality 100.0 %
     Copy CRC 0B66F191
     Copy OK
No errors occurred
AccurateRip summary
Track  1  accurately ripped (confidence 1)  [7B83B850]  (AR v2)
Track  2  accurately ripped (confidence 1)  [85AD4316]  (AR v2)
Track  3  accurately ripped (confidence 1)  [679BF5B9]  (AR v2)
Track  4  accurately ripped (confidence 1)  [243E45D8]  (AR v2)
Track  5  accurately ripped (confidence 1)  [BBA8C8C5]  (AR v2)
Track  6  accurately ripped (confidence 3)  [677F0189]  (AR v2)
Track  7  accurately ripped (confidence 3)  [6D5EEF07]  (AR v2)
Track  8  accurately ripped (confidence 3)  [0C6E1A2E]  (AR v2)
Track  9  accurately ripped (confidence 2)  [2B991040]  (AR v2)
All tracks accurately ripped
End of status report
==== Log checksum 3C6C5885B361E7A41B04FA680A1CE8119434238D5D3E21D3068F9DB064F9E8CB ====
 
Содержание индексной карты (.CUE)
REM GENRE Jazz
REM DATE 2013
REM DISCID 7F0F8409
REM COMMENT "ExactAudioCopy v1.1"
PERFORMER "Eddie Lockjaw Davis"
TITLE "Seven Classic Albums CD1"
FILE "Eddie 'Lockjaw' Davis - Seven Classic Albums CD1.wav" WAVE
  TRACK 01 AUDIO
    TITLE "Very Saxy"
    PERFORMER "Eddie Lockjaw Davis"
    INDEX 01 00:00:00
  TRACK 02 AUDIO
    TITLE "Lester Leaps In"
    PERFORMER "Eddie Lockjaw Davis"
    INDEX 01 08:16:19
  TRACK 03 AUDIO
    TITLE "Fourmost"
    PERFORMER "Eddie Lockjaw Davis"
    INDEX 01 14:29:45
  TRACK 04 AUDIO
    TITLE "Foot Pattin'"
    PERFORMER "Eddie Lockjaw Davis"
    INDEX 01 19:50:32
  TRACK 05 AUDIO
    TITLE "Light and Lovely"
    PERFORMER "Eddie Lockjaw Davis"
    INDEX 01 28:41:22
  TRACK 06 AUDIO
    TITLE "What's Happenin'"
    PERFORMER "Eddie Lockjaw Davis"
    INDEX 01 38:35:52
  TRACK 07 AUDIO
    TITLE "Abundance"
    PERFORMER "Eddie Lockjaw Davis"
    INDEX 01 45:24:58
  TRACK 08 AUDIO
    TITLE "If I Had You"
    PERFORMER "Eddie Lockjaw Davis"
    INDEX 01 52:17:59
  TRACK 09 AUDIO
    TITLE "63rd Street Theme"
    PERFORMER "Eddie Lockjaw Davis"
    INDEX 01 59:02:14
 
Отчет CUETools
[CUETools log; Date: 05.11.2018 23:36:38; Version: 2.1.5]
[CTDB TOCID: nMflq9nFHLf3iqSlF5DtRENdK50-] found.
Track | CTDB Status
  1   | (3/3) Accurately ripped
  2   | (3/3) Accurately ripped
  3   | (3/3) Accurately ripped
  4   | (3/3) Accurately ripped
  5   | (3/3) Accurately ripped
  6   | (3/3) Accurately ripped
  7   | (3/3) Accurately ripped
  8   | (3/3) Accurately ripped
  9   | (3/3) Accurately ripped
[AccurateRip ID: 0016dabe-00a7d22e-7f0f8409] found.
Track   [  CRC   |   V2   ] Status
 01     [1df4841c|7b83b850] (0+3/3) Accurately ripped
 02     [0d3650d2|85ad4316] (0+3/3) Accurately ripped
 03     [76097f7a|679bf5b9] (0+3/3) Accurately ripped
 04     [d03f3d1f|243e45d8] (0+3/3) Accurately ripped
 05     [0a6e0dfd|bba8c8c5] (0+3/3) Accurately ripped
 06     [42cbd2c5|677f0189] (0+5/5) Accurately ripped
 07     [d736196c|6d5eef07] (0+5/5) Accurately ripped
 08     [0a43ae8c|0c6e1a2e] (0+5/5) Accurately ripped
 09     [b3f9472d|2b991040] (0+4/4) Accurately ripped
Track Peak [ CRC32  ] [W/O NULL] [  LOG   ]
 --  100,0 [0B66F191] [4FB318D6]   CRC32
 01   88,0 [3747A6FD] [62574A1F]
 02   89,9 [7D7844E8] [6D63172B]
 03   91,8 [152B81F9] [4E13A2FC]
 04   95,3 [92D69B04] [EF494634]
 05   92,0 [A14A6095] [794CB81A]
 06  100,0 [DF6BB2F7] [0A2596E3]
 07  100,0 [0219F4AB] [2C34FF90]
 08  100,0 [E2A544AC] [D1EA6D07]
 09   99,9 [6629F904] [C751833B]
 
CD2 {73:32}

Battle Stations (With Johnny Griffin) (1960) cont.
01. Pull My Coat [6:40]
02. Hey Jim [8:00]
Tough Tenors (With Johnny Griffin) (1960)
03. Tickle Toe [5:28]
04. Save Your Love for Me [7:08]
05. Twins [6:33]
06. Funky Fluke [9:15]
07. Imagination [4:28]
08. Soft Winds [7:17]
Lookin' at Monk (With Johnny Griffin) (1961)
09. In Walked Bud [4:37]
10. Well, You Needn't [5:33]
11. Ruby, My Dear [4:42]
12. Rhythm-A-Ning [3:57]

 
Лог создания рипа
Exact Audio Copy V1.1 from 23. June 2015
EAC extraction logfile from 15. November 2015, 20:39
Eddie Lockjaw Davis / Seven Classic Albums - CD2 - 2013 - Real Gone Jazz
Used drive  : PLEXTOR DVDR   PX-760A   Adapter: 1  ID: 1
Read mode               : Secure
Utilize accurate stream : Yes
Defeat audio cache      : Yes
Make use of C2 pointers : No
Read offset correction                      : 30
Overread into Lead-In and Lead-Out          : No
Fill up missing offset samples with silence : Yes
Delete leading and trailing silent blocks   : No
Null samples used in CRC calculations       : Yes
Used interface                              : Native Win32 interface for Win NT & 2000
Used output format              : User Defined Encoder
Selected bitrate                : 1024 kBit/s
Quality                         : High
Add ID3 tag                     : No
Command line compressor         : C:\Program Files (x86)\FLAC\flac.exe
Additional command line options : -5 -V -T "ARTIST=%artist%" -T "TITLE=%title%" -T "ALBUM=%albumtitle%" -T "DATE=%year%" -T "TRACKNUMBER=%tracknr%" -T "GENRE=%genre%" -T "COMMENT=[oStereo.ru]" %source%
TOC of the extracted CD
     Track |   Start  |  Length  | Start sector | End sector
    ---------------------------------------------------------
        1  |  0:00.00 |  6:39.18 |         0    |    29942
        2  |  6:39.18 |  7:59.02 |     29943    |    65869
        3  | 14:38.20 |  5:27.61 |     65870    |    90455
        4  | 20:06.06 |  7:07.11 |     90456    |   122491
        5  | 27:13.17 |  6:32.69 |    122492    |   151960
        6  | 33:46.11 |  9:14.29 |    151961    |   193539
        7  | 43:00.40 |  4:27.47 |    193540    |   213611
        8  | 47:28.12 |  7:16.28 |    213612    |   246339
        9  | 54:44.40 |  4:36.36 |    246340    |   267075
       10  | 59:21.01 |  5:32.48 |    267076    |   292023
       11  | 64:53.49 |  4:41.07 |    292024    |   313105
       12  | 69:34.56 |  3:56.71 |    313106    |   330876
Range status and errors
Selected range
     Filename D:\Eddie Lockjaw Davis - Seven Classic Albums - CD2 - 2013 - Real Gone Jazz.wav
     Peak level 100.0 %
     Extraction speed 1.2 X
     Range quality 100.0 %
     Copy CRC C4E43527
     Copy OK
No errors occurred
AccurateRip summary
Track  1  accurately ripped (confidence 3)  [8DFDFD40]  (AR v2)
Track  2  accurately ripped (confidence 3)  [EF48349D]  (AR v2)
Track  3  accurately ripped (confidence 3)  [1C7267E0]  (AR v2)
Track  4  accurately ripped (confidence 3)  [45E2F42D]  (AR v2)
Track  5  accurately ripped (confidence 3)  [D3AC6621]  (AR v2)
Track  6  accurately ripped (confidence 3)  [73BF284F]  (AR v2)
Track  7  accurately ripped (confidence 3)  [24E15BA9]  (AR v2)
Track  8  accurately ripped (confidence 3)  [1A0CAF99]  (AR v2)
Track  9  accurately ripped (confidence 3)  [48669EDF]  (AR v2)
Track 10  accurately ripped (confidence 3)  [BC85FF84]  (AR v2)
Track 11  accurately ripped (confidence 3)  [B4D7CE6D]  (AR v2)
Track 12  accurately ripped (confidence 3)  [46EF79C5]  (AR v2)
All tracks accurately ripped
End of status report
==== Log checksum A9E7778346C5C4F9DB95F7BEEBA1E64C036A6DBBE104BD0B8A77CFE6328C2302 ====
 
Содержание индексной карты (.CUE)
REM GENRE Jazz
REM DATE 2013
REM DISCID AC113B0C
REM COMMENT "ExactAudioCopy v1.1"
PERFORMER "Eddie Lockjaw Davis"
TITLE "Seven Classic Albums CD2"
FILE "Eddie 'Lockjaw' Davis - Seven Classic Albums CD2.wav" WAVE
  TRACK 01 AUDIO
    TITLE "Pull My Coat"
    PERFORMER "Eddie Lockjaw Davis"
    INDEX 01 00:00:00
  TRACK 02 AUDIO
    TITLE "Hey Jim"
    PERFORMER "Eddie Lockjaw Davis"
    INDEX 01 06:39:18
  TRACK 03 AUDIO
    TITLE "Tickle Toe"
    PERFORMER "Eddie Lockjaw Davis"
    INDEX 01 14:38:20
  TRACK 04 AUDIO
    TITLE "Save Your Love for Me"
    PERFORMER "Eddie Lockjaw Davis"
    INDEX 01 20:06:06
  TRACK 05 AUDIO
    TITLE "Twins"
    PERFORMER "Eddie Lockjaw Davis"
    INDEX 01 27:13:17
  TRACK 06 AUDIO
    TITLE "Funky Fluke"
    PERFORMER "Eddie Lockjaw Davis"
    INDEX 01 33:46:11
  TRACK 07 AUDIO
    TITLE "Imagination"
    PERFORMER "Eddie Lockjaw Davis"
    INDEX 01 43:00:40
  TRACK 08 AUDIO
    TITLE "Soft Winds"
    PERFORMER "Eddie Lockjaw Davis"
    INDEX 01 47:28:12
  TRACK 09 AUDIO
    TITLE "In Walked Bud"
    PERFORMER "Eddie Lockjaw Davis"
    INDEX 01 54:44:40
  TRACK 10 AUDIO
    TITLE "Well, You Needn't"
    PERFORMER "Eddie Lockjaw Davis"
    INDEX 01 59:21:01
  TRACK 11 AUDIO
    TITLE "Ruby, My Dear"
    PERFORMER "Eddie Lockjaw Davis"
    INDEX 01 64:53:49
  TRACK 12 AUDIO
    TITLE "Rhythm-A-Ning"
    PERFORMER "Eddie Lockjaw Davis"
    INDEX 01 69:34:56
 
Отчет CUETools
[CUETools log; Date: 05.11.2018 23:36:49; Version: 2.1.5]
[CTDB TOCID: WqTv6KMafodMuBlWQAxIyqkrjyw-] found.
Track | CTDB Status
  1   | (4/4) Accurately ripped
  2   | (4/4) Accurately ripped
  3   | (4/4) Accurately ripped
  4   | (4/4) Accurately ripped
  5   | (4/4) Accurately ripped
  6   | (4/4) Accurately ripped
  7   | (4/4) Accurately ripped
  8   | (4/4) Accurately ripped
  9   | (4/4) Accurately ripped
 10   | (4/4) Accurately ripped
 11   | (4/4) Accurately ripped
 12   | (4/4) Accurately ripped
[AccurateRip ID: 00235bf1-014604dc-ac113b0c] found.
Track   [  CRC   |   V2   ] Status
 01     [80733202|8dfdfd40] (0+5/5) Accurately ripped
 02     [920c6db5|ef48349d] (0+5/5) Accurately ripped
 03     [9e81ee01|1c7267e0] (0+5/5) Accurately ripped
 04     [c691064c|45e2f42d] (0+5/5) Accurately ripped
 05     [328da341|d3ac6621] (0+5/5) Accurately ripped
 06     [c0995eb6|73bf284f] (0+5/5) Accurately ripped
 07     [5ab65df6|24e15ba9] (0+5/5) Accurately ripped
 08     [9f40a091|1a0caf99] (0+5/5) Accurately ripped
 09     [2c81af54|48669edf] (0+5/5) Accurately ripped
 10     [feace416|bc85ff84] (0+5/5) Accurately ripped
 11     [8eebfdb6|b4d7ce6d] (0+5/5) Accurately ripped
 12     [fcb76313|46ef79c5] (0+5/5) Accurately ripped
Track Peak [ CRC32  ] [W/O NULL] [  LOG   ]
 --  100,0 [C4E43527] [1B5742EE]   CRC32
 01  100,0 [5F2F1DA1] [0E426423]
 02  100,0 [193DEBA6] [7EE6CC74]
 03   84,5 [A08E812F] [2D3B30D7]
 04   82,6 [FFD2DE87] [12134407]
 05   82,4 [3D012BA2] [58D0F601]
 06   87,5 [4EC397EC] [62B49DF9]
 07   69,0 [60CD95AD] [7BB5873F]
 08   89,7 [C6B67D0C] [971F48B7]
 09   93,2 [C648CD1B] [715A2C8F]
 10   99,9 [951AC030] [033FD99A]
 11   98,9 [65EB54EA] [AA1E2EA5]
 12   99,4 [C584058C] [EEB4EB03]
 
CD3 {74:03}

Lookin' at Monk (With Johnny Griffin) (1961) cont.
01. Epistrophy [8:39]
02. 'Round Midnight [5:27]
03. Stickball (I Mean You) [5:57]
Blues Up & Down (With Johnny Griffin) (1961)
04. Camp Meeting [5:27]
05. Blues Up & Down [5:06]
06. Nice and Easy [7:31]
07. Oh, Gee [3:54]
08. Walkin' [6:58]
09. Leapin' on Lennox [4:40]
10. Layin' on Mellow [4:53]
Tough Tenor Favorites (With Johnny Griffin) (1962)
11. Bahia [5:56]
12. Blue Lou [4:45]
13. How Am I to Know [4:58]

 
Лог создания рипа
Exact Audio Copy V1.1 from 23. June 2015
EAC extraction logfile from 15. November 2015, 21:51
Eddie Lockjaw Davis / Seven Classic Albums - CD3 - 2013 - Real Gone Jazz
Used drive  : PLEXTOR DVDR   PX-760A   Adapter: 1  ID: 1
Read mode               : Secure
Utilize accurate stream : Yes
Defeat audio cache      : Yes
Make use of C2 pointers : No
Read offset correction                      : 30
Overread into Lead-In and Lead-Out          : No
Fill up missing offset samples with silence : Yes
Delete leading and trailing silent blocks   : No
Null samples used in CRC calculations       : Yes
Used interface                              : Native Win32 interface for Win NT & 2000
Used output format              : User Defined Encoder
Selected bitrate                : 1024 kBit/s
Quality                         : High
Add ID3 tag                     : No
Command line compressor         : C:\Program Files (x86)\FLAC\flac.exe
Additional command line options : -5 -V -T "ARTIST=%artist%" -T "TITLE=%title%" -T "ALBUM=%albumtitle%" -T "DATE=%year%" -T "TRACKNUMBER=%tracknr%" -T "GENRE=%genre%" -T "COMMENT=[oStereo.ru]" %source%
TOC of the extracted CD
     Track |   Start  |  Length  | Start sector | End sector
    ---------------------------------------------------------
        1  |  0:00.00 |  8:38.49 |         0    |    38898
        2  |  8:38.49 |  5:26.04 |     38899    |    63352
        3  | 14:04.53 |  5:56.17 |     63353    |    90069
        4  | 20:00.70 |  5:26.42 |     90070    |   114561
        5  | 25:27.37 |  5:05.61 |    114562    |   137497
        6  | 30:33.23 |  7:30.15 |    137498    |   171262
        7  | 38:03.38 |  3:53.09 |    171263    |   188746
        8  | 41:56.47 |  6:57.05 |    188747    |   220026
        9  | 48:53.52 |  4:39.23 |    220027    |   240974
       10  | 53:33.00 |  4:52.02 |    240975    |   262876
       11  | 58:25.02 |  5:55.58 |    262877    |   289559
       12  | 64:20.60 |  4:44.19 |    289560    |   310878
       13  | 69:05.04 |  4:57.57 |    310879    |   333210
Range status and errors
Selected range
     Filename D:\Eddie Lockjaw Davis - Seven Classic Albums - CD3 - 2013 - Real Gone Jazz.wav
     Peak level 100.0 %
     Extraction speed 1.2 X
     Range quality 99.9 %
     Copy CRC 06695B8A
     Copy OK
No errors occurred
AccurateRip summary
Track  1  accurately ripped (confidence 3)  [840E9A44]  (AR v2)
Track  2  accurately ripped (confidence 3)  [49C780CE]  (AR v2)
Track  3  accurately ripped (confidence 3)  [338EACD7]  (AR v2)
Track  4  accurately ripped (confidence 3)  [C4A4C7DE]  (AR v2)
Track  5  accurately ripped (confidence 3)  [45328137]  (AR v2)
Track  6  accurately ripped (confidence 3)  [62A31557]  (AR v2)
Track  7  accurately ripped (confidence 3)  [C6FD29A0]  (AR v2)
Track  8  accurately ripped (confidence 3)  [88666F99]  (AR v2)
Track  9  accurately ripped (confidence 3)  [E8C954A6]  (AR v2)
Track 10  accurately ripped (confidence 3)  [C6B22DE9]  (AR v2)
Track 11  accurately ripped (confidence 3)  [EE745B91]  (AR v2)
Track 12  accurately ripped (confidence 3)  [E15597AC]  (AR v2)
Track 13  accurately ripped (confidence 3)  [82389D38]  (AR v2)
All tracks accurately ripped
End of status report
==== Log checksum 61B7B1EDD11452EE6E367FB78B7ED29CB7C7A2EEAC9B8F2DEC3B76E382A991D2 ====
 
Содержание индексной карты (.CUE)
REM GENRE Jazz
REM DATE 2013
REM DISCID B3115A0D
REM COMMENT "ExactAudioCopy v1.1"
PERFORMER "Eddie Lockjaw Davis"
TITLE "Seven Classic Albums CD3"
FILE "Eddie 'Lockjaw' Davis - Seven Classic Albums CD3.wav" WAVE
  TRACK 01 AUDIO
    TITLE "Epistrophy"
    PERFORMER "Eddie Lockjaw Davis"
    INDEX 01 00:00:00
  TRACK 02 AUDIO
    TITLE "'Round Midnight"
    PERFORMER "Eddie Lockjaw Davis"
    INDEX 01 08:38:49
  TRACK 03 AUDIO
    TITLE "Stickball (I Mean You)"
    PERFORMER "Eddie Lockjaw Davis"
    INDEX 01 14:04:53
  TRACK 04 AUDIO
    TITLE "Camp Meeting"
    PERFORMER "Eddie Lockjaw Davis"
    INDEX 01 20:00:70
  TRACK 05 AUDIO
    TITLE "Blues Up & Down"
    PERFORMER "Eddie Lockjaw Davis"
    INDEX 01 25:27:37
  TRACK 06 AUDIO
    TITLE "Nice and Easy"
    PERFORMER "Eddie Lockjaw Davis"
    INDEX 01 30:33:23
  TRACK 07 AUDIO
    TITLE "Oh, Gee"
    PERFORMER "Eddie Lockjaw Davis"
    INDEX 01 38:03:38
  TRACK 08 AUDIO
    TITLE "Walkin'"
    PERFORMER "Eddie Lockjaw Davis"
    INDEX 01 41:56:47
  TRACK 09 AUDIO
    TITLE "Leapin' on Lennox"
    PERFORMER "Eddie Lockjaw Davis"
    INDEX 01 48:53:52
  TRACK 10 AUDIO
    TITLE "Layin' on Mellow"
    PERFORMER "Eddie Lockjaw Davis"
    INDEX 01 53:33:00
  TRACK 11 AUDIO
    TITLE "Bahia"
    PERFORMER "Eddie Lockjaw Davis"
    INDEX 01 58:25:02
  TRACK 12 AUDIO
    TITLE "Blue Lou"
    PERFORMER "Eddie Lockjaw Davis"
    INDEX 01 64:20:60
  TRACK 13 AUDIO
    TITLE "How Am I To Know"
    PERFORMER "Eddie Lockjaw Davis"
    INDEX 01 69:05:04
 
Отчет CUETools
[CUETools log; Date: 05.11.2018 23:37:01; Version: 2.1.5]
[CTDB TOCID: 9TDohFLoj1eJ9bgAwxVTFl9N6E4-] found.
Track | CTDB Status
  1   | (5/5) Accurately ripped
  2   | (5/5) Accurately ripped
  3   | (5/5) Accurately ripped
  4   | (5/5) Accurately ripped
  5   | (5/5) Accurately ripped
  6   | (5/5) Accurately ripped
  7   | (5/5) Accurately ripped
  8   | (5/5) Accurately ripped
  9   | (5/5) Accurately ripped
 10   | (5/5) Accurately ripped
 11   | (5/5) Accurately ripped
 12   | (5/5) Accurately ripped
 13   | (5/5) Accurately ripped
[AccurateRip ID: 002590e1-01713976-b3115a0d] found.
Track   [  CRC   |   V2   ] Status
 01     [ea01ba03|840e9a44] (0+5/5) Accurately ripped
 02     [076f0c62|49c780ce] (0+5/5) Accurately ripped
 03     [27a4d54f|338eacd7] (0+5/5) Accurately ripped
 04     [aaa7962d|c4a4c7de] (0+5/5) Accurately ripped
 05     [edd0dfa2|45328137] (0+5/5) Accurately ripped
 06     [68bf9f03|62a31557] (0+5/5) Accurately ripped
 07     [55f2377d|c6fd29a0] (0+5/5) Accurately ripped
 08     [186f74c9|88666f99] (0+5/5) Accurately ripped
 09     [6b52de58|e8c954a6] (0+5/5) Accurately ripped
 10     [b745531c|c6b22de9] (0+5/5) Accurately ripped
 11     [01509b82|ee745b91] (0+5/5) Accurately ripped
 12     [902e858d|e15597ac] (0+5/5) Accurately ripped
 13     [d4ca3be0|82389d38] (0+5/5) Accurately ripped
Track Peak [ CRC32  ] [W/O NULL] [  LOG   ]
 --  100,0 [06695B8A] [8CA3F180]   CRC32
 01   98,2 [A4CD12E7] [EB345E8C]
 02   87,9 [88B9EB99] [5794C9FC]
 03   99,9 [4D166E58] [462B71BA]
 04   99,9 [31EC4188] [D6BEA6EE]
 05   97,9 [A753AE1F] [75B345DD]
 06  100,0 [55EE7251] [25AC42BE]
 07   97,9 [6A965ECE] [0E987CC8]
 08   97,9 [A6D3CBC1] [04D9AA55]
 09   97,9 [5C55DFDD] [24F4B0BD]
 10   97,9 [A5ECA73E] [4B59F0C7]
 11   91,7 [BC45EAD5] [05A27014]
 12   99,0 [0FCF1D96] [13184B6D]
 13   84,7 [85B607CC] [762FC98E]
 
CD4 {64:21}

Tough Tenor Favorites (With Johnny Griffin) (1962) cont.
01. Ow! [4:22]
02. I Wished on the Moon [6:42]
03. Tin Tin Deo [5:46]
04. From This Moment On [6:06]
Jawbreakers (With Harry "Sweets" Edison) (1962)
05. Oo-Ee [5:12]
06. Broadway [5:20]
07. Jawbreakers [6:34]
08. Four [3:34]
09. Moolah [4:39]
10. A Girl in Calico [4:42]
11. I've Got a Crush on You [5:55]
12. Close Your Eyes [5:35]

 
Лог создания рипа
Exact Audio Copy V1.1 from 23. June 2015
EAC extraction logfile from 15. November 2015, 22:59
Eddie Lockjaw Davis / Seven Classic Albums - CD4 - 2013 - Real Gone Jazz
Used drive  : PLEXTOR DVDR   PX-760A   Adapter: 1  ID: 1
Read mode               : Secure
Utilize accurate stream : Yes
Defeat audio cache      : Yes
Make use of C2 pointers : No
Read offset correction                      : 30
Overread into Lead-In and Lead-Out          : No
Fill up missing offset samples with silence : Yes
Delete leading and trailing silent blocks   : No
Null samples used in CRC calculations       : Yes
Used interface                              : Native Win32 interface for Win NT & 2000
Used output format              : User Defined Encoder
Selected bitrate                : 1024 kBit/s
Quality                         : High
Add ID3 tag                     : No
Command line compressor         : C:\Program Files (x86)\FLAC\flac.exe
Additional command line options : -5 -V -T "ARTIST=%artist%" -T "TITLE=%title%" -T "ALBUM=%albumtitle%" -T "DATE=%year%" -T "TRACKNUMBER=%tracknr%" -T "GENRE=%genre%" -T "COMMENT=[oStereo.ru]" %source%
TOC of the extracted CD
     Track |   Start  |  Length  | Start sector | End sector
    ---------------------------------------------------------
        1  |  0:00.00 |  4:21.35 |         0    |    19609
        2  |  4:21.35 |  6:41.18 |     19610    |    49702
        3  | 11:02.53 |  5:45.52 |     49703    |    75629
        4  | 16:48.30 |  6:05.63 |     75630    |   103067
        5  | 22:54.18 |  5:11.72 |    103068    |   126464
        6  | 28:06.15 |  5:19.03 |    126465    |   150392
        7  | 33:25.18 |  6:33.45 |    150393    |   179912
        8  | 39:58.63 |  3:33.24 |    179913    |   195911
        9  | 43:32.12 |  4:38.69 |    195912    |   216830
       10  | 48:11.06 |  4:41.30 |    216831    |   237935
       11  | 52:52.36 |  5:54.09 |    237936    |   264494
       12  | 58:46.45 |  5:34.38 |    264495    |   289582
Range status and errors
Selected range
     Filename D:\Eddie Lockjaw Davis - Seven Classic Albums - CD4 - 2013 - Real Gone Jazz.wav
     Peak level 100.0 %
     Extraction speed 1.2 X
     Range quality 100.0 %
     Copy CRC 82B2F594
     Copy OK
No errors occurred
AccurateRip summary
Track  1  accurately ripped (confidence 3)  [CA1EF4C1]  (AR v2)
Track  2  accurately ripped (confidence 3)  [60536188]  (AR v2)
Track  3  accurately ripped (confidence 3)  [862D61F7]  (AR v2)
Track  4  accurately ripped (confidence 3)  [26149CCA]  (AR v2)
Track  5  accurately ripped (confidence 2)  [8565C957]  (AR v2)
Track  6  accurately ripped (confidence 2)  [4DE6AF8C]  (AR v2)
Track  7  accurately ripped (confidence 2)  [93ABC824]  (AR v2)
Track  8  accurately ripped (confidence 2)  [8B55C297]  (AR v2)
Track  9  accurately ripped (confidence 2)  [1ADF1149]  (AR v2)
Track 10  accurately ripped (confidence 2)  [AF77A9D6]  (AR v2)
Track 11  accurately ripped (confidence 2)  [427D01FE]  (AR v2)
Track 12  accurately ripped (confidence 2)  [AAF238C2]  (AR v2)
All tracks accurately ripped
End of status report
==== Log checksum 978D38EC5E4E5361E51DD637AB96B23908D067161E47A0A7B6374978E42CBCC2 ====
 
Содержание индексной карты (.CUE)
REM GENRE Jazz
REM DATE 2013
REM DISCID 9A0F150C
REM COMMENT "ExactAudioCopy v1.1"
PERFORMER "Eddie Lockjaw Davis"
TITLE "Seven Classic Albums CD4"
FILE "Eddie 'Lockjaw' Davis - Seven Classic Albums CD4.wav" WAVE
  TRACK 01 AUDIO
    TITLE "Ow!"
    PERFORMER "Eddie Lockjaw Davis"
    INDEX 01 00:00:00
  TRACK 02 AUDIO
    TITLE "I Wished on the Moon"
    PERFORMER "Eddie Lockjaw Davis"
    INDEX 01 04:21:35
  TRACK 03 AUDIO
    TITLE "Tin Tin Deo"
    PERFORMER "Eddie Lockjaw Davis"
    INDEX 01 11:02:53
  TRACK 04 AUDIO
    TITLE "From This Moment On"
    PERFORMER "Eddie Lockjaw Davis"
    INDEX 01 16:48:30
  TRACK 05 AUDIO
    TITLE "Oo-Ee"
    PERFORMER "Eddie Lockjaw Davis"
    INDEX 01 22:54:18
  TRACK 06 AUDIO
    TITLE "Broadway"
    PERFORMER "Eddie Lockjaw Davis"
    INDEX 01 28:06:15
  TRACK 07 AUDIO
    TITLE "Jawbreakers"
    PERFORMER "Eddie Lockjaw Davis"
    INDEX 01 33:25:18
  TRACK 08 AUDIO
    TITLE "Four"
    PERFORMER "Eddie Lockjaw Davis"
    INDEX 01 39:58:63
  TRACK 09 AUDIO
    TITLE "Moolah"
    PERFORMER "Eddie Lockjaw Davis"
    INDEX 01 43:32:12
  TRACK 10 AUDIO
    TITLE "A Girl in Calico"
    PERFORMER "Eddie Lockjaw Davis"
    INDEX 01 48:11:06
  TRACK 11 AUDIO
    TITLE "I've Got a Crush on You"
    PERFORMER "Eddie Lockjaw Davis"
    INDEX 01 52:52:36
  TRACK 12 AUDIO
    TITLE "Close Your Eyes"
    PERFORMER "Eddie Lockjaw Davis"
    INDEX 01 58:46:45
 
Отчет CUETools
[CUETools log; Date: 05.11.2018 23:37:12; Version: 2.1.5]
[CTDB TOCID: 7ToGlB8p0uExO1arDlwDWoHUQEo-] found.
Track | CTDB Status
  1   | (3/3) Accurately ripped
  2   | (3/3) Accurately ripped
  3   | (3/3) Accurately ripped
  4   | (3/3) Accurately ripped
  5   | (3/3) Accurately ripped
  6   | (3/3) Accurately ripped
  7   | (3/3) Accurately ripped
  8   | (3/3) Accurately ripped
  9   | (3/3) Accurately ripped
 10   | (3/3) Accurately ripped
 11   | (3/3) Accurately ripped
 12   | (3/3) Accurately ripped
[AccurateRip ID: 001d2323-010ec1f0-9a0f150c] found.
Track   [  CRC   |   V2   ] Status
 01     [07f23f0a|ca1ef4c1] (0+5/5) Accurately ripped
 02     [ce7c81d4|60536188] (0+5/5) Accurately ripped
 03     [e4aa747c|862d61f7] (0+5/5) Accurately ripped
 04     [cd952a26|26149cca] (0+5/5) Accurately ripped
 05     [f1a93bf1|8565c957] (0+4/4) Accurately ripped
 06     [f997a06d|4de6af8c] (0+4/4) Accurately ripped
 07     [6c6aebca|93abc824] (0+4/4) Accurately ripped
 08     [03b6cb0c|8b55c297] (0+4/4) Accurately ripped
 09     [e65e1b1e|1adf1149] (0+4/4) Accurately ripped
 10     [ebb6ebec|af77a9d6] (0+4/4) Accurately ripped
 11     [a4f262fd|427d01fe] (0+4/4) Accurately ripped
 12     [81135950|aaf238c2] (0+4/4) Accurately ripped
Track Peak [ CRC32  ] [W/O NULL] [  LOG   ]
 --   99,9 [82B2F594] [90228788]   CRC32
 01   94,3 [CC12757C] [BEDCB9A8]
 02   97,3 [4B82D5B9] [BE2357E1]
 03   90,6 [B3FFAEFC] [D46AD343]
 04   90,3 [A32D2F11] [0C614AF2]
 05   99,9 [64E1DAE1] [54AEDCA6]
 06   97,9 [9D96566F] [51916702]
 07   99,3 [D116486E] [7BD81EED]
 08   99,8 [A7167024] [10D8AC1E]
 09   91,8 [F122A89F] [0DB09DA5]
 10   87,3 [60098167] [D1057F43]
 11   92,7 [F893F2CF] [C43B7FBE]
 12   97,4 [F34C9513] [A58E6B5C
Приватный:
Нет (DHT включён)
Размер:
1.69 Гб (1,816,141,663 байт) » файлов: 26
Участники:
4 раздают, 0 качают (4 участников всего)
Внешние участники:
5 раздают, 2 качают (7 участников всего) [ Обновить ]
10:46
18
Нет комментариев. Ваш будет первым!