Поиск

1959-1962 Sonny Stitt - Eight Classic Albums, Vol.2 (2013) {Real Gone Jazz RGJCD419} [4CD]

1959-1962 Sonny Stitt - Eight Classic Albums, Vol.2 (2013) {Real Gone Jazz RGJCD419} [4CD]
Стили:
Страна-производитель диска (релиза):
EU
Дата записи диска:
1959-1962
Дата издания диска:
2013
Издатель (лейбл):
Номер по каталогу:
RGJCD419
Носитель:
CD
Аудиокодек:
FLAC (*.flac)
Тип рипа:
image+.cue
Битрейт аудио:
lossless
Время звучания:
04:46:21
Наличие сканов:
нет
Релизёр (источник):
ssagwebster
Треклист:
 
CD1 {67:13}

A Little Bit of Stitt (1959)
01. When the Red, Red Robin (Comes Bob, Bob, Bobbin' Along) [2:47]
02. For All We Know [3:07]
03. I'm Confessin' [3:20]
04. Cocktails for Two [3:40]
05. Star Eyes [3:39]
06. On a Slow Boat to China [3:23]
07. Laura [3:19]
08. J.B. Blues [3:57]
09. Don't Take Your Love from Me [2:57]
10. After the Late, Late Show [3:58]
The Sonny Side of Stitt (1960)
11. Skylark [2:47]
12. Don't Worry 'Bout Me [2:52]
13. I'll Remember April [3:43]
14. Day by Day [3:31]
15. Red Top [3:51]
16. Moonray [2:58]
17. Old Fashioned Blues [4:43]
18. I Never Knew [4:27]
19. Hitsburg [4:24]

 
Лог создания рипа
Exact Audio Copy V1.1 from 23. June 2015
EAC extraction logfile from 24. February 2017, 17:53
Sonny Stitt / A Little Bit Of Stitt - The Sonny Side Of Stitt
Used drive  : PLEXTOR DVDR   PX-760A   Adapter: 1  ID: 1
Read mode               : Secure
Utilize accurate stream : Yes
Defeat audio cache      : Yes
Make use of C2 pointers : No
Read offset correction                      : 30
Overread into Lead-In and Lead-Out          : No
Fill up missing offset samples with silence : Yes
Delete leading and trailing silent blocks   : No
Null samples used in CRC calculations       : Yes
Used interface                              : Native Win32 interface for Win NT & 2000
Used output format              : User Defined Encoder
Selected bitrate                : 1024 kBit/s
Quality                         : High
Add ID3 tag                     : No
Command line compressor         : C:\Program Files (x86)\FLAC\flac.exe
Additional command line options : -5 -V -T "ARTIST=%artist%" -T "TITLE=%title%" -T "ALBUM=%albumtitle%" -T "DATE=%year%" -T "TRACKNUMBER=%tracknr%" -T "GENRE=%genre%" -T "COMMENT=[oStereo.ru]" %source%
TOC of the extracted CD
     Track |   Start  |  Length  | Start sector | End sector
    ---------------------------------------------------------
        1  |  0:00.00 |  2:46.04 |         0    |    12453
        2  |  2:46.04 |  3:06.61 |     12454    |    26464
        3  |  5:52.65 |  3:19.10 |     26465    |    41399
        4  |  9:12.00 |  3:39.26 |     41400    |    57850
        5  | 12:51.26 |  3:38.67 |     57851    |    74267
        6  | 16:30.18 |  3:22.09 |     74268    |    89426
        7  | 19:52.27 |  3:18.22 |     89427    |   104298
        8  | 23:10.49 |  3:56.52 |    104299    |   122050
        9  | 27:07.26 |  2:56.23 |    122051    |   135273
       10  | 30:03.49 |  3:58.00 |    135274    |   153123
       11  | 34:01.49 |  2:46.53 |    153124    |   165626
       12  | 36:48.27 |  2:51.32 |    165627    |   178483
       13  | 39:39.59 |  3:42.71 |    178484    |   195204
       14  | 43:22.55 |  3:30.12 |    195205    |   210966
       15  | 46:52.67 |  3:50.49 |    210967    |   228265
       16  | 50:43.41 |  2:57.21 |    228266    |   241561
       17  | 53:40.62 |  4:42.63 |    241562    |   262774
       18  | 58:23.50 |  4:26.45 |    262775    |   282769
       19  | 62:50.20 |  4:23.05 |    282770    |   302499
Range status and errors
Selected range
     Filename D:\Sonny Stitt - 8 Classic Albums Vol2 (1959-62) - CD1.wav
     Peak level 100.0 %
     Extraction speed 1.2 X
     Range quality 100.0 %
     Copy CRC BD43F1E6
     Copy OK
No errors occurred
AccurateRip summary
Track  1  accurately ripped (confidence 6)  [228B5F68]  (AR v2)
Track  2  accurately ripped (confidence 6)  [E85097DB]  (AR v2)
Track  3  accurately ripped (confidence 6)  [40A88CCD]  (AR v2)
Track  4  accurately ripped (confidence 6)  [30357757]  (AR v2)
Track  5  accurately ripped (confidence 6)  [BFCA59AA]  (AR v2)
Track  6  accurately ripped (confidence 6)  [2B110393]  (AR v2)
Track  7  accurately ripped (confidence 6)  [B074EAD3]  (AR v2)
Track  8  accurately ripped (confidence 6)  [D903CF48]  (AR v2)
Track  9  accurately ripped (confidence 6)  [46170048]  (AR v2)
Track 10  accurately ripped (confidence 6)  [4A3E7130]  (AR v2)
Track 11  accurately ripped (confidence 6)  [90EB878F]  (AR v2)
Track 12  accurately ripped (confidence 6)  [08342C9D]  (AR v2)
Track 13  accurately ripped (confidence 6)  [139D5499]  (AR v2)
Track 14  accurately ripped (confidence 6)  [E9D41A44]  (AR v2)
Track 15  accurately ripped (confidence 6)  [B103BD24]  (AR v2)
Track 16  accurately ripped (confidence 6)  [FA9729FF]  (AR v2)
Track 17  accurately ripped (confidence 6)  [3CEA0720]  (AR v2)
Track 18  accurately ripped (confidence 6)  [FE06285A]  (AR v2)
Track 19  accurately ripped (confidence 6)  [086B4EC9]  (AR v2)
All tracks accurately ripped
End of status report
==== Log checksum 469F62DB418D8CF9A91F657FEB4973001DB23E543EC891E0BC7EDA1E9B30EB8C ====
 
Содержание индексной карты (.CUE)
REM GENRE Jazz
REM DATE 2013
REM DISCID FA0FC113
REM COMMENT "ExactAudioCopy v1.1"
PERFORMER "Sonny Stitt"
TITLE "Eight Classic Albums, Vol.2 CD1"
FILE "Sonny Stitt - Eight Classic Albums, Vol.2 CD1.wav" WAVE
  TRACK 01 AUDIO
    TITLE "When the Red, Red Robin (Comes Bob, Bob, Bobbin' Along)"
    PERFORMER "Sonny Stitt"
    INDEX 01 00:00:00
  TRACK 02 AUDIO
    TITLE "For All We Know"
    PERFORMER "Sonny Stitt"
    INDEX 01 02:46:04
  TRACK 03 AUDIO
    TITLE "I'm Confessin'"
    PERFORMER "Sonny Stitt"
    INDEX 01 05:52:65
  TRACK 04 AUDIO
    TITLE "Cocktails for Two"
    PERFORMER "Sonny Stitt"
    INDEX 01 09:12:00
  TRACK 05 AUDIO
    TITLE "Star Eyes"
    PERFORMER "Sonny Stitt"
    INDEX 01 12:51:26
  TRACK 06 AUDIO
    TITLE "On a Slow Boat to China"
    PERFORMER "Sonny Stitt"
    INDEX 01 16:30:18
  TRACK 07 AUDIO
    TITLE "Laura"
    PERFORMER "Sonny Stitt"
    INDEX 01 19:52:27
  TRACK 08 AUDIO
    TITLE "J.B. Blues"
    PERFORMER "Sonny Stitt"
    INDEX 01 23:10:49
  TRACK 09 AUDIO
    TITLE "Don't Take Your Love from Me"
    PERFORMER "Sonny Stitt"
    INDEX 01 27:07:26
  TRACK 10 AUDIO
    TITLE "After the Late, Late Show"
    PERFORMER "Sonny Stitt"
    INDEX 01 30:03:49
  TRACK 11 AUDIO
    TITLE "Skylark"
    PERFORMER "Sonny Stitt"
    INDEX 01 34:01:49
  TRACK 12 AUDIO
    TITLE "Don't Worry 'Bout Me"
    PERFORMER "Sonny Stitt"
    INDEX 01 36:48:27
  TRACK 13 AUDIO
    TITLE "I'll Remember April"
    PERFORMER "Sonny Stitt"
    INDEX 01 39:39:59
  TRACK 14 AUDIO
    TITLE "Day by Day"
    PERFORMER "Sonny Stitt"
    INDEX 01 43:22:55
  TRACK 15 AUDIO
    TITLE "Red Top"
    PERFORMER "Sonny Stitt"
    INDEX 01 46:52:67
  TRACK 16 AUDIO
    TITLE "Moonray"
    PERFORMER "Sonny Stitt"
    INDEX 01 50:43:41
  TRACK 17 AUDIO
    TITLE "Old Fashioned Blues"
    PERFORMER "Sonny Stitt"
    INDEX 01 53:40:62
  TRACK 18 AUDIO
    TITLE "I Never Knew"
    PERFORMER "Sonny Stitt"
    INDEX 01 58:23:50
  TRACK 19 AUDIO
    TITLE "Hitsburg"
    PERFORMER "Sonny Stitt"
    INDEX 01 62:50:20
 
Отчет CUETools
[CUETools log; Date: 06.11.2018 0:16:51; Version: 2.1.5]
[CTDB TOCID: Q7AsZQ11y.w6xq_9IVjAFfGGY0k-] found.
Track | CTDB Status
  1   | (5/5) Accurately ripped
  2   | (5/5) Accurately ripped
  3   | (5/5) Accurately ripped
  4   | (5/5) Accurately ripped
  5   | (5/5) Accurately ripped
  6   | (5/5) Accurately ripped
  7   | (5/5) Accurately ripped
  8   | (5/5) Accurately ripped
  9   | (5/5) Accurately ripped
 10   | (5/5) Accurately ripped
 11   | (5/5) Accurately ripped
 12   | (5/5) Accurately ripped
 13   | (5/5) Accurately ripped
 14   | (5/5) Accurately ripped
 15   | (5/5) Accurately ripped
 16   | (5/5) Accurately ripped
 17   | (5/5) Accurately ripped
 18   | (5/5) Accurately ripped
 19   | (5/5) Accurately ripped
[AccurateRip ID: 002c04a1-026d4bec-fa0fc113] found.
Track   [  CRC   |   V2   ] Status
 01     [1ea5b99d|228b5f68] (0+8/8) Accurately ripped
 02     [3caf5a4d|e85097db] (0+8/8) Accurately ripped
 03     [abd1ffc7|40a88ccd] (0+8/8) Accurately ripped
 04     [d574ea7b|30357757] (0+8/8) Accurately ripped
 05     [7adf132a|bfca59aa] (0+8/8) Accurately ripped
 06     [1eb5bb27|2b110393] (0+8/8) Accurately ripped
 07     [61ac8331|b074ead3] (0+8/8) Accurately ripped
 08     [52b9bc87|d903cf48] (0+8/8) Accurately ripped
 09     [7715916b|46170048] (0+8/8) Accurately ripped
 10     [fdc47492|4a3e7130] (0+8/8) Accurately ripped
 11     [2c23f145|90eb878f] (0+8/8) Accurately ripped
 12     [0285e73b|08342c9d] (0+8/8) Accurately ripped
 13     [75fd8a95|139d5499] (0+8/8) Accurately ripped
 14     [00ef3e7c|e9d41a44] (0+8/8) Accurately ripped
 15     [5dcb4572|b103bd24] (0+8/8) Accurately ripped
 16     [ee9fdb7c|fa9729ff] (0+8/8) Accurately ripped
 17     [9e872f0b|3cea0720] (0+8/8) Accurately ripped
 18     [d6145099|fe06285a] (0+8/8) Accurately ripped
 19     [1c8d576f|086b4ec9] (0+8/8) Accurately ripped
Track Peak [ CRC32  ] [W/O NULL] [  LOG   ]
 --  100,0 [BD43F1E6] [6A900E9B]   CRC32
 01  100,0 [636AAE03] [E5EF6AB2]
 02   93,5 [20855BF7] [F26C799B]
 03   97,1 [1B87D64A] [BA5A4FEA]
 04   91,2 [F99A01D3] [F7A62842]
 05   97,3 [4CBB8384] [C5264D1F]
 06   99,9 [D0536DBD] [0218F0A2]
 07   87,2 [1467B0EA] [8862DC0B]
 08   94,7 [52D99D8B] [FB193D04]
 09   98,2 [FDF8589B] [C67A6983]
 10   91,3 [06F73BF6] [69425D42]
 11   93,1 [7C03A849] [FB819FCC]
 12  100,0 [B9B5B95E] [CB067794]
 13   94,5 [ADB8F0D0] [E94B2DD3]
 14   98,6 [3AC9F396] [65AA9C5D]
 15  100,0 [E6629BFF] [373E3C82]
 16   96,6 [CA18FB4B] [B07AB060]
 17   99,9 [857F35D7] [610979E4]
 18   88,1 [EFE9BD09] [F022726D]
 19  100,0 [D2EB23C8] [C443CC10]
 
CD2 {66:29}

Stittsville (1960)
01. Angel Eyes [3:10]
02. It All Depends on You [2:49]
03. Stormy Thursday [3:23]
04. Embraceable You [2:36]
05. It Could Happen to You [3:25]
06. But Not for Me [3:09]
07. Memories of You [5:11]
08. I Cried for You [3:16]
09. Bright as Snow [2:45]
10. Spinning [2:29]
Sonny Side Up (1961)
11. Sonny Side Up [2:33]
12. On Green Dolphin Street [3:53]
13. The More I See You [3:40]
14. Don't Take Your Love from Me [4:44]
15. My Blue Heaven [2:38]
16. My Mother's Eyes [3:47]
17. When I Grow Too Old to Dream [3:02]
18. Bye Bye Blues [5:01]
19. I've Got the World on a String [5:09]

 
Лог создания рипа
Exact Audio Copy V1.1 from 23. June 2015
EAC extraction logfile from 24. February 2017, 18:54
Sonny Stitt / Stittsville - Sonny Side Up
Used drive  : PLEXTOR DVDR   PX-760A   Adapter: 1  ID: 1
Read mode               : Secure
Utilize accurate stream : Yes
Defeat audio cache      : Yes
Make use of C2 pointers : No
Read offset correction                      : 30
Overread into Lead-In and Lead-Out          : No
Fill up missing offset samples with silence : Yes
Delete leading and trailing silent blocks   : No
Null samples used in CRC calculations       : Yes
Used interface                              : Native Win32 interface for Win NT & 2000
Used output format              : User Defined Encoder
Selected bitrate                : 1024 kBit/s
Quality                         : High
Add ID3 tag                     : No
Command line compressor         : C:\Program Files (x86)\FLAC\flac.exe
Additional command line options : -5 -V -T "ARTIST=%artist%" -T "TITLE=%title%" -T "ALBUM=%albumtitle%" -T "DATE=%year%" -T "TRACKNUMBER=%tracknr%" -T "GENRE=%genre%" -T "COMMENT=[oStereo.ru]" %source%
TOC of the extracted CD
     Track |   Start  |  Length  | Start sector | End sector
    ---------------------------------------------------------
        1  |  0:00.00 |  3:09.26 |         0    |    14200
        2  |  3:09.26 |  2:48.24 |     14201    |    26824
        3  |  5:57.50 |  3:22.60 |     26825    |    42034
        4  |  9:20.35 |  2:35.57 |     42035    |    53716
        5  | 11:56.17 |  3:24.25 |     53717    |    69041
        6  | 15:20.42 |  3:08.11 |     69042    |    83152
        7  | 18:28.53 |  5:10.04 |     83153    |   106406
        8  | 23:38.57 |  3:15.40 |    106407    |   121071
        9  | 26:54.22 |  2:44.53 |    121072    |   133424
       10  | 29:39.00 |  2:28.10 |    133425    |   144534
       11  | 32:07.10 |  2:32.07 |    144535    |   155941
       12  | 34:39.17 |  3:52.39 |    155942    |   173380
       13  | 38:31.56 |  3:39.14 |    173381    |   189819
       14  | 42:10.70 |  4:43.38 |    189820    |   211082
       15  | 46:54.33 |  2:37.61 |    211083    |   222918
       16  | 49:32.19 |  3:46.40 |    222919    |   239908
       17  | 53:18.59 |  3:01.13 |    239909    |   253496
       18  | 56:19.72 |  5:00.14 |    253497    |   276010
       19  | 61:20.11 |  5:08.71 |    276011    |   299181
Range status and errors
Selected range
     Filename D:\Sonny Stitt - 8 Classic Albums Vol2 (1959-62) - CD2.wav
     Peak level 100.0 %
     Extraction speed 1.2 X
     Range quality 100.0 %
     Copy CRC 96BA1592
     Copy OK
No errors occurred
AccurateRip summary
Track  1  accurately ripped (confidence 6)  [2678D103]  (AR v2)
Track  2  accurately ripped (confidence 6)  [3EFA3CD6]  (AR v2)
Track  3  accurately ripped (confidence 6)  [A6BD2D27]  (AR v2)
Track  4  accurately ripped (confidence 6)  [88361A43]  (AR v2)
Track  5  accurately ripped (confidence 6)  [2E1ABFF1]  (AR v2)
Track  6  accurately ripped (confidence 6)  [FF487407]  (AR v2)
Track  7  accurately ripped (confidence 6)  [672DB8FF]  (AR v2)
Track  8  accurately ripped (confidence 6)  [0B17B42E]  (AR v2)
Track  9  accurately ripped (confidence 6)  [284B75C5]  (AR v2)
Track 10  accurately ripped (confidence 6)  [45DA8CFC]  (AR v2)
Track 11  accurately ripped (confidence 6)  [7F9E9A47]  (AR v2)
Track 12  accurately ripped (confidence 6)  [13F7ABC3]  (AR v2)
Track 13  accurately ripped (confidence 6)  [255B9186]  (AR v2)
Track 14  accurately ripped (confidence 6)  [28E46DA8]  (AR v2)
Track 15  accurately ripped (confidence 6)  [DAAC81FF]  (AR v2)
Track 16  accurately ripped (confidence 6)  [7B36CE98]  (AR v2)
Track 17  accurately ripped (confidence 6)  [07126140]  (AR v2)
Track 18  accurately ripped (confidence 6)  [9BC4F3BA]  (AR v2)
Track 19  accurately ripped (confidence 6)  [9BE32461]  (AR v2)
All tracks accurately ripped
End of status report
==== Log checksum D72C7203433368A2196E149801FD37F7674DDDBBB6804D7EBB7837162A4AF2A6 ====
 
Содержание индексной карты (.CUE)
REM GENRE Jazz
REM DATE 2013
REM DISCID F40F9513
REM COMMENT "ExactAudioCopy v1.1"
PERFORMER "Sonny Stitt"
TITLE "Eight Classic Albums, Vol.2 CD2"
FILE "Sonny Stitt - Eight Classic Albums, Vol.2 CD2.wav" WAVE
  TRACK 01 AUDIO
    TITLE "Angel Eyes"
    PERFORMER "Sonny Stitt"
    INDEX 01 00:00:00
  TRACK 02 AUDIO
    TITLE "It All Depends on You"
    PERFORMER "Sonny Stitt"
    INDEX 01 03:09:26
  TRACK 03 AUDIO
    TITLE "Stormy Thursday"
    PERFORMER "Sonny Stitt"
    INDEX 01 05:57:50
  TRACK 04 AUDIO
    TITLE "Embraceable You"
    PERFORMER "Sonny Stitt"
    INDEX 01 09:20:35
  TRACK 05 AUDIO
    TITLE "It Could Happen to You"
    PERFORMER "Sonny Stitt"
    INDEX 01 11:56:17
  TRACK 06 AUDIO
    TITLE "But Not for Me"
    PERFORMER "Sonny Stitt"
    INDEX 01 15:20:42
  TRACK 07 AUDIO
    TITLE "Memories of You"
    PERFORMER "Sonny Stitt"
    INDEX 01 18:28:53
  TRACK 08 AUDIO
    TITLE "I Cried for You"
    PERFORMER "Sonny Stitt"
    INDEX 01 23:38:57
  TRACK 09 AUDIO
    TITLE "Bright as Snow"
    PERFORMER "Sonny Stitt"
    INDEX 01 26:54:22
  TRACK 10 AUDIO
    TITLE "Spinning"
    PERFORMER "Sonny Stitt"
    INDEX 01 29:39:00
  TRACK 11 AUDIO
    TITLE "Sonny Side Up"
    PERFORMER "Sonny Stitt"
    INDEX 01 32:07:10
  TRACK 12 AUDIO
    TITLE "On Green Dolphin Street"
    PERFORMER "Sonny Stitt"
    INDEX 01 34:39:17
  TRACK 13 AUDIO
    TITLE "The More I See You"
    PERFORMER "Sonny Stitt"
    INDEX 01 38:31:56
  TRACK 14 AUDIO
    TITLE "Don't Take Your Love from Me"
    PERFORMER "Sonny Stitt"
    INDEX 01 42:10:70
  TRACK 15 AUDIO
    TITLE "My Blue Heaven"
    PERFORMER "Sonny Stitt"
    INDEX 01 46:54:33
  TRACK 16 AUDIO
    TITLE "My Mother's Eyes"
    PERFORMER "Sonny Stitt"
    INDEX 01 49:32:19
  TRACK 17 AUDIO
    TITLE "When I Grow Too Old to Dream"
    PERFORMER "Sonny Stitt"
    INDEX 01 53:18:59
  TRACK 18 AUDIO
    TITLE "Bye Bye Blues"
    PERFORMER "Sonny Stitt"
    INDEX 01 56:19:72
  TRACK 19 AUDIO
    TITLE "I've Got the World on a String"
    PERFORMER "Sonny Stitt"
    INDEX 01 61:20:11
 
Отчет CUETools
[CUETools log; Date: 06.11.2018 0:17:02; Version: 2.1.5]
[CTDB TOCID: 4izJA53h4J6XdDWTFRYBwfr5mw4-] found.
Track | CTDB Status
  1   | (5/5) Accurately ripped
  2   | (5/5) Accurately ripped
  3   | (5/5) Accurately ripped
  4   | (5/5) Accurately ripped
  5   | (5/5) Accurately ripped
  6   | (5/5) Accurately ripped
  7   | (5/5) Accurately ripped
  8   | (5/5) Accurately ripped
  9   | (5/5) Accurately ripped
 10   | (5/5) Accurately ripped
 11   | (5/5) Accurately ripped
 12   | (5/5) Accurately ripped
 13   | (5/5) Accurately ripped
 14   | (5/5) Accurately ripped
 15   | (5/5) Accurately ripped
 16   | (5/5) Accurately ripped
 17   | (5/5) Accurately ripped
 18   | (5/5) Accurately ripped
 19   | (5/5) Accurately ripped
[AccurateRip ID: 002af89c-025f2d1b-f40f9513] found.
Track   [  CRC   |   V2   ] Status
 01     [37c48cc4|2678d103] (0+8/8) Accurately ripped
 02     [f89e042d|3efa3cd6] (0+8/8) Accurately ripped
 03     [3595259c|a6bd2d27] (0+8/8) Accurately ripped
 04     [4aca06bf|88361a43] (0+8/8) Accurately ripped
 05     [941d07b2|2e1abff1] (0+8/8) Accurately ripped
 06     [19ad1842|ff487407] (0+8/8) Accurately ripped
 07     [c85c23f0|672db8ff] (0+8/8) Accurately ripped
 08     [9f7010a7|0b17b42e] (0+8/8) Accurately ripped
 09     [f2695850|284b75c5] (0+8/8) Accurately ripped
 10     [de07d556|45da8cfc] (0+8/8) Accurately ripped
 11     [755de5c4|7f9e9a47] (0+8/8) Accurately ripped
 12     [63dc10df|13f7abc3] (0+8/8) Accurately ripped
 13     [7fb1f218|255b9186] (0+8/8) Accurately ripped
 14     [93e19df7|28e46da8] (0+8/8) Accurately ripped
 15     [13df1796|daac81ff] (0+8/8) Accurately ripped
 16     [a83a8553|7b36ce98] (0+8/8) Accurately ripped
 17     [76dbeef4|07126140] (0+8/8) Accurately ripped
 18     [986d0348|9bc4f3ba] (0+8/8) Accurately ripped
 19     [9b80402b|9be32461] (0+7/7) Accurately ripped
Track Peak [ CRC32  ] [W/O NULL] [  LOG   ]
 --  100,0 [96BA1592] [710D5500]   CRC32
 01   91,4 [CA165AFF] [4604A972]
 02  100,0 [CBBCFDCC] [FC282B21]
 03   99,1 [ECA4A622] [519F091D]
 04   90,3 [AE47F7B6] [640F5055]
 05   96,6 [CC6DE70D] [F14D1018]
 06   97,7 [9841DFC6] [732AB53E]
 07   86,0 [1675CA69] [82F559EF]
 08   96,3 [3826425E] [52214672]
 09   99,3 [7DD87AAC] [012759EF]
 10   96,9 [A56B209D] [1AD71C96]
 11   87,6 [8A42DF2A] [A1019048]
 12   96,0 [73F272FE] [168AC4C0]
 13   92,9 [C1248146] [E0EEA4A1]
 14   94,4 [2BB54ABD] [A4770CD6]
 15   88,7 [2E20CA7A] [CD5F122D]
 16   87,4 [18A28A96] [D2323439]
 17   92,7 [C1600C8E] [764E2FA2]
 18   95,3 [F88AD6BB] [659C5003]
 19   93,1 [B5F0AAA0] [1155375F]
 
CD3 {76:43}

Boss Tenors (With Gene Ammons) (1961)
01. There Is No Greater Love [6:31]
02. The One Before This [7:10]
03. Autumn Leaves [6:33]
04. Blues Up and Down [8:48]
05. Counter Clockwise [9:38]
Stitt Meets Brother Jack (With Jack McDuff) (1962)
06. All of Me [4:48]
07. Pam Ain't Blue [4:28]
08. Time After Time [4:35]
09. Ringin' In [5:15]
10. Nother Fu'ther [6:21]
11. When Sonny Gets Blue [6:40]
12. Thirty-Three, Ninety Six [6:03]

 
Лог создания рипа
Exact Audio Copy V1.1 from 23. June 2015
EAC extraction logfile from 24. February 2017, 21:10
Sonny Stitt / Sonny Stitt - 8 Classic Albums Vol2 (1959-62) - CD3
Used drive  : PLEXTOR DVDR   PX-760A   Adapter: 1  ID: 1
Read mode               : Secure
Utilize accurate stream : Yes
Defeat audio cache      : Yes
Make use of C2 pointers : No
Read offset correction                      : 30
Overread into Lead-In and Lead-Out          : No
Fill up missing offset samples with silence : Yes
Delete leading and trailing silent blocks   : No
Null samples used in CRC calculations       : Yes
Used interface                              : Native Win32 interface for Win NT & 2000
Used output format              : User Defined Encoder
Selected bitrate                : 1024 kBit/s
Quality                         : High
Add ID3 tag                     : No
Command line compressor         : C:\Program Files (x86)\FLAC\flac.exe
Additional command line options : -5 -V -T "ARTIST=%artist%" -T "TITLE=%title%" -T "ALBUM=%albumtitle%" -T "DATE=%year%" -T "TRACKNUMBER=%tracknr%" -T "GENRE=%genre%" -T "COMMENT=[oStereo.ru]" %source%
TOC of the extracted CD
     Track |   Start  |  Length  | Start sector | End sector
    ---------------------------------------------------------
        1  |  0:00.00 |  6:30.01 |         0    |    29250
        2  |  6:30.01 |  7:09.19 |     29251    |    61444
        3  | 13:39.20 |  6:32.69 |     61445    |    90913
        4  | 20:12.14 |  8:47.59 |     90914    |   130497
        5  | 28:59.73 |  9:37.14 |    130498    |   173786
        6  | 38:37.12 |  4:47.06 |    173787    |   195317
        7  | 43:24.18 |  4:27.59 |    195318    |   215401
        8  | 47:52.02 |  4:34.06 |    215402    |   235957
        9  | 52:26.08 |  5:14.63 |    235958    |   259570
       10  | 57:40.71 |  6:20.59 |    259571    |   288129
       11  | 64:01.55 |  6:39.12 |    288130    |   318066
       12  | 70:40.67 |  6:02.31 |    318067    |   345247
Range status and errors
Selected range
     Filename D:\Sonny Stitt - 8 Classic Albums Vol2 (1959-62) - CD3.wav
     Peak level 91.3 %
     Extraction speed 1.2 X
     Range quality 100.0 %
     Copy CRC 923063A5
     Copy OK
No errors occurred
AccurateRip summary
Track  1  accurately ripped (confidence 5)  [33ED23A0]  (AR v2)
Track  2  accurately ripped (confidence 5)  [B4EAA915]  (AR v2)
Track  3  accurately ripped (confidence 5)  [3C87A451]  (AR v2)
Track  4  accurately ripped (confidence 5)  [146ABD24]  (AR v2)
Track  5  accurately ripped (confidence 5)  [0E189B6B]  (AR v2)
Track  6  accurately ripped (confidence 5)  [4E31759B]  (AR v2)
Track  7  accurately ripped (confidence 5)  [568E6974]  (AR v2)
Track  8  accurately ripped (confidence 5)  [D9FF1854]  (AR v2)
Track  9  accurately ripped (confidence 5)  [F83C3EE2]  (AR v2)
Track 10  accurately ripped (confidence 5)  [98FB0BF8]  (AR v2)
Track 11  accurately ripped (confidence 5)  [EF5062FE]  (AR v2)
Track 12  accurately ripped (confidence 5)  [38182E30]  (AR v2)
All tracks accurately ripped
End of status report
==== Log checksum 26D4B4748EE01319D7254C29B3732B8AD40477BDEB6A69498200E658B80EB60D ====
 
Содержание индексной карты (.CUE)
REM GENRE Jazz
REM DATE 2013
REM DISCID 9F11FB0C
REM COMMENT "ExactAudioCopy v1.1"
PERFORMER "Sonny Stitt"
TITLE "Eight Classic Albums, Vol.2 CD3"
FILE "Sonny Stitt - Eight Classic Albums, Vol.2 CD3.wav" WAVE
  TRACK 01 AUDIO
    TITLE "There Is No Greater Love"
    PERFORMER "Sonny Stitt"
    INDEX 01 00:00:00
  TRACK 02 AUDIO
    TITLE "The One Before This"
    PERFORMER "Sonny Stitt"
    INDEX 01 06:30:01
  TRACK 03 AUDIO
    TITLE "Autumn Leaves"
    PERFORMER "Sonny Stitt"
    INDEX 01 13:39:20
  TRACK 04 AUDIO
    TITLE "Blues Up and Down"
    PERFORMER "Sonny Stitt"
    INDEX 01 20:12:14
  TRACK 05 AUDIO
    TITLE "Counter Clockwise"
    PERFORMER "Sonny Stitt"
    INDEX 01 28:59:73
  TRACK 06 AUDIO
    TITLE "All of Me"
    PERFORMER "Sonny Stitt"
    INDEX 01 38:37:12
  TRACK 07 AUDIO
    TITLE "Pam Ain't Blue"
    PERFORMER "Sonny Stitt"
    INDEX 01 43:24:18
  TRACK 08 AUDIO
    TITLE "Time After Time"
    PERFORMER "Sonny Stitt"
    INDEX 01 47:52:02
  TRACK 09 AUDIO
    TITLE "Ringin' In"
    PERFORMER "Sonny Stitt"
    INDEX 01 52:26:08
  TRACK 10 AUDIO
    TITLE "Nother Fu'ther"
    PERFORMER "Sonny Stitt"
    INDEX 01 57:40:71
  TRACK 11 AUDIO
    TITLE "When Sonny Gets Blue"
    PERFORMER "Sonny Stitt"
    INDEX 01 64:01:55
  TRACK 12 AUDIO
    TITLE "Thirty-Three, Ninety Six"
    PERFORMER "Sonny Stitt"
    INDEX 01 70:40:67
 
Отчет CUETools
[CUETools log; Date: 06.11.2018 0:17:14; Version: 2.1.5]
[CTDB TOCID: RPrESobzJOPfkHB.fGEySEiLyhc-] found.
Track | CTDB Status
  1   | (5/5) Accurately ripped
  2   | (5/5) Accurately ripped
  3   | (5/5) Accurately ripped
  4   | (5/5) Accurately ripped
  5   | (5/5) Accurately ripped
  6   | (5/5) Accurately ripped
  7   | (5/5) Accurately ripped
  8   | (5/5) Accurately ripped
  9   | (5/5) Accurately ripped
 10   | (5/5) Accurately ripped
 11   | (5/5) Accurately ripped
 12   | (5/5) Accurately ripped
[AccurateRip ID: 0023c2a5-01496012-9f11fb0c] found.
Track   [  CRC   |   V2   ] Status
 01     [63865c5e|33ed23a0] (0+7/7) Accurately ripped
 02     [3407cbe1|b4eaa915] (0+7/7) Accurately ripped
 03     [ae43020a|3c87a451] (0+7/7) Accurately ripped
 04     [0924dcc9|146abd24] (0+7/7) Accurately ripped
 05     [e071a150|0e189b6b] (0+7/7) Accurately ripped
 06     [1d095fca|4e31759b] (0+7/7) Accurately ripped
 07     [f7e0d7a6|568e6974] (0+7/7) Accurately ripped
 08     [7f281bd6|d9ff1854] (0+7/7) Accurately ripped
 09     [e2377a01|f83c3ee2] (0+7/7) Accurately ripped
 10     [beb595b8|98fb0bf8] (0+7/7) Accurately ripped
 11     [b1542816|ef5062fe] (0+7/7) Accurately ripped
 12     [8b47ec8a|38182e30] (0+7/7) Accurately ripped
Track Peak [ CRC32  ] [W/O NULL] [  LOG   ]
 --   91,3 [923063A5] [DAD731E9]   CRC32
 01   73,4 [FD655A53] [3B476629]
 02   84,0 [5D168094] [EF5055B8]
 03   73,0 [B2B6DB52] [1990BFE6]
 04   75,4 [F9495F01] [8EABAC4B]
 05   77,8 [20D8092A] [9910BC6F]
 06   84,0 [0DE94F7B] [4D5B64FA]
 07   91,3 [C0D62711] [74E8885A]
 08   66,5 [71C57A95] [FABE16AC]
 09   87,5 [4346BF29] [1D40DFAD]
 10   85,7 [413ED83B] [83A631F7]
 11   70,2 [C7715A7C] [5A068FBB]
 12   84,0 [F2BA5AC7] [43F9E891]
 
CD4 {75:55}

Boss Tenors in Orbit (With Gene Ammons) (1962)
01. Long Ago and Far Away [6:18]
02. Walkin' [5:22]
03. Why Was I Born [8:22]
04. John Brown's Body [7:24]
05. Bye Bye Blackbird [9:59]
Feelin's (1962)
06. O Sole Mio [3:46]
07. Feelin's [3:54]
08. Nightmare [2:18]
09. S'posin' [6:20]
10. Look Up [3:11]
11. Goodnight Ladies [3:49]
12. If I Should Lose You [5:18]
13. Hollerin' the Blues [4:50]
14. Stretch Pants [5:11]

 
Лог создания рипа
Exact Audio Copy V1.1 from 23. June 2015
EAC extraction logfile from 24. February 2017, 22:18
Sonny Stitt / Boss Tenors In Orbit - Feelinґs
Used drive  : PLEXTOR DVDR   PX-760A   Adapter: 1  ID: 1
Read mode               : Secure
Utilize accurate stream : Yes
Defeat audio cache      : Yes
Make use of C2 pointers : No
Read offset correction                      : 30
Overread into Lead-In and Lead-Out          : No
Fill up missing offset samples with silence : Yes
Delete leading and trailing silent blocks   : No
Null samples used in CRC calculations       : Yes
Used interface                              : Native Win32 interface for Win NT & 2000
Used output format              : User Defined Encoder
Selected bitrate                : 1024 kBit/s
Quality                         : High
Add ID3 tag                     : No
Command line compressor         : C:\Program Files (x86)\FLAC\flac.exe
Additional command line options : -5 -V -T "ARTIST=%artist%" -T "TITLE=%title%" -T "ALBUM=%albumtitle%" -T "DATE=%year%" -T "TRACKNUMBER=%tracknr%" -T "GENRE=%genre%" -T "COMMENT=[oStereo.ru]" %source%
TOC of the extracted CD
     Track |   Start  |  Length  | Start sector | End sector
    ---------------------------------------------------------
        1  |  0:00.00 |  6:17.57 |         0    |    28331
        2  |  6:17.57 |  5:21.02 |     28332    |    52408
        3  | 11:38.59 |  8:21.35 |     52409    |    90018
        4  | 20:00.19 |  7:23.46 |     90019    |   123289
        5  | 27:23.65 |  9:58.18 |    123290    |   168157
        6  | 37:22.08 |  3:45.49 |    168158    |   185081
        7  | 41:07.57 |  3:53.56 |    185082    |   202612
        8  | 45:01.38 |  2:17.12 |    202613    |   212899
        9  | 47:18.50 |  6:19.32 |    212900    |   241356
       10  | 53:38.07 |  3:10.65 |    241357    |   255671
       11  | 56:48.72 |  3:48.56 |    255672    |   272827
       12  | 60:37.53 |  5:17.37 |    272828    |   296639
       13  | 65:55.15 |  4:49.63 |    296640    |   318377
       14  | 70:45.03 |  5:10.13 |    318378    |   341640
Range status and errors
Selected range
     Filename D:\Sonny Stitt - 8 Classic Albums Vol2 (1959-62) - CD4.wav
     Peak level 100.0 %
     Extraction speed 1.2 X
     Range quality 100.0 %
     Copy CRC 38727F63
     Copy OK
No errors occurred
AccurateRip summary
Track  1  accurately ripped (confidence 6)  [5C631C60]  (AR v2)
Track  2  accurately ripped (confidence 6)  [D1A25E03]  (AR v2)
Track  3  accurately ripped (confidence 6)  [7600C15B]  (AR v2)
Track  4  accurately ripped (confidence 6)  [A8402357]  (AR v2)
Track  5  accurately ripped (confidence 6)  [307D7A5B]  (AR v2)
Track  6  accurately ripped (confidence 5)  [FA839B5A]  (AR v2)
Track  7  accurately ripped (confidence 5)  [43A7C3A0]  (AR v2)
Track  8  accurately ripped (confidence 5)  [5B2DA93D]  (AR v2)
Track  9  accurately ripped (confidence 5)  [3EB276F1]  (AR v2)
Track 10  accurately ripped (confidence 5)  [35F0B870]  (AR v2)
Track 11  accurately ripped (confidence 5)  [AB0E5156]  (AR v2)
Track 12  accurately ripped (confidence 5)  [E0C35DD4]  (AR v2)
Track 13  accurately ripped (confidence 5)  [75CE628B]  (AR v2)
Track 14  accurately ripped (confidence 6)  [6FEA6839]  (AR v2)
All tracks accurately ripped
End of status report
==== Log checksum D3888A48EA474F8BB621F13FD9EE1D03638B39249BCFED566641A2AD50A6C292 ====
 
Содержание индексной карты (.CUE)
REM GENRE Jazz
REM DATE 2013
REM DISCID B911CB0E
REM COMMENT "ExactAudioCopy v1.1"
PERFORMER "Sonny Stitt"
TITLE "Eight Classic Albums, Vol.2 CD4"
FILE "Sonny Stitt - Eight Classic Albums, Vol.2 CD4.wav" WAVE
  TRACK 01 AUDIO
    TITLE "Long Ago and Far Away"
    PERFORMER "Sonny Stitt"
    INDEX 01 00:00:00
  TRACK 02 AUDIO
    TITLE "Walkin'"
    PERFORMER "Sonny Stitt"
    INDEX 01 06:17:57
  TRACK 03 AUDIO
    TITLE "Why Was I Born"
    PERFORMER "Sonny Stitt"
    INDEX 01 11:38:59
  TRACK 04 AUDIO
    TITLE "John Brown's Body"
    PERFORMER "Sonny Stitt"
    INDEX 01 20:00:19
  TRACK 05 AUDIO
    TITLE "Bye Bye Blackbird"
    PERFORMER "Sonny Stitt"
    INDEX 01 27:23:65
  TRACK 06 AUDIO
    TITLE "O Sole Mio"
    PERFORMER "Sonny Stitt"
    INDEX 01 37:22:08
  TRACK 07 AUDIO
    TITLE "Feelin's"
    PERFORMER "Sonny Stitt"
    INDEX 01 41:07:57
  TRACK 08 AUDIO
    TITLE "Nightmare"
    PERFORMER "Sonny Stitt"
    INDEX 01 45:01:38
  TRACK 09 AUDIO
    TITLE "S'posin'"
    PERFORMER "Sonny Stitt"
    INDEX 01 47:18:50
  TRACK 10 AUDIO
    TITLE "Look Up"
    PERFORMER "Sonny Stitt"
    INDEX 01 53:38:07
  TRACK 11 AUDIO
    TITLE "Goodnight Ladies"
    PERFORMER "Sonny Stitt"
    INDEX 01 56:48:72
  TRACK 12 AUDIO
    TITLE "If I Should Lose You"
    PERFORMER "Sonny Stitt"
    INDEX 01 60:37:53
  TRACK 13 AUDIO
    TITLE "Hollerin' the Blues"
    PERFORMER "Sonny Stitt"
    INDEX 01 65:55:15
  TRACK 14 AUDIO
    TITLE "Stretch Pants"
    PERFORMER "Sonny Stitt"
    INDEX 01 70:45:03
 
Отчет CUETools
[CUETools log; Date: 06.11.2018 0:17:26; Version: 2.1.5]
[CTDB TOCID: e7EYi2K8hMyi.CNQtaasoPMe2kg-] found.
Track | CTDB Status
  1   | (3/3) Accurately ripped
  2   | (3/3) Accurately ripped
  3   | (3/3) Accurately ripped
  4   | (3/3) Accurately ripped
  5   | (3/3) Accurately ripped
  6   | (3/3) Accurately ripped
  7   | (3/3) Accurately ripped
  8   | (3/3) Accurately ripped
  9   | (3/3) Accurately ripped
 10   | (3/3) Accurately ripped
 11   | (3/3) Accurately ripped
 12   | (3/3) Accurately ripped
 13   | (3/3) Accurately ripped
 14   | (3/3) Accurately ripped
[AccurateRip ID: 002a8fc7-01ba0c55-b911cb0e] found.
Track   [  CRC   |   V2   ] Status
 01     [f71d0426|5c631c60] (0+8/8) Accurately ripped
 02     [ebaef6f3|d1a25e03] (0+8/8) Accurately ripped
 03     [222fcfc4|7600c15b] (0+8/8) Accurately ripped
 04     [e24b159b|a8402357] (0+8/8) Accurately ripped
 05     [6909d5ed|307d7a5b] (0+8/8) Accurately ripped
 06     [6a321793|fa839b5a] (0+7/7) Accurately ripped
 07     [e2b4eca9|43a7c3a0] (0+7/7) Accurately ripped
 08     [7b889a79|5b2da93d] (0+7/7) Accurately ripped
 09     [52411258|3eb276f1] (0+7/7) Accurately ripped
 10     [986c16d3|35f0b870] (0+7/7) Accurately ripped
 11     [cc0dcc89|ab0e5156] (0+7/7) Accurately ripped
 12     [f7d06e58|e0c35dd4] (0+7/7) Accurately ripped
 13     [d7db6da4|75ce628b] (0+7/7) Accurately ripped
 14     [44094b0a|6fea6839] (0+8/8) Accurately ripped
Track Peak [ CRC32  ] [W/O NULL] [  LOG   ]
 --  100,0 [38727F63] [E09C9E2D]   CRC32
 01   95,8 [3D5D559F] [A0BB686A]
 02   90,1 [B9FD9058] [D498541F]
 03  100,0 [64BD0CD4] [3DF1C1A5]
 04   92,7 [A31E08CB] [78906752]
 05   92,9 [B04C820D] [1DC48F5C]
 06   89,6 [20CA24DB] [5B342132]
 07   95,8 [FEDA375F] [9B72F4F6]
 08   93,5 [525EAEB0] [DCB20158]
 09   95,7 [C3717D90] [92AD4525]
 10   93,5 [924E51D8] [C2A83D9E]
 11   97,0 [72BF755A] [A9C98194]
 12   91,9 [EEC1590B] [6339A334]
 13   96,6 [E63811D3] [42FBB459]
 14   96,7 [C7E50AEA] [A0636880]
Приватный:
Нет (DHT включён)
Размер:
1.53 Гб (1,644,451,504 байт) » файлов: 26
Участники:
6 раздают, 0 качают (6 участников всего)
Внешние участники:
3 раздают, 1 качают (4 участников всего) [ Обновить ]
23:15
34
Нет комментариев. Ваш будет первым!