Поиск

1957-1962 Bobby Timmons - Six Classic Albums (2013) {Real Gone Jazz RGJCD398} [4CD]

1957-1962 Bobby Timmons - Six Classic Albums (2013) {Real Gone Jazz RGJCD398} [4CD]
Стили:
Страна-производитель диска (релиза):
EU
Дата записи диска:
1957-1962
Дата издания диска:
2013
Издатель (лейбл):
Номер по каталогу:
RGJCD398
Носитель:
CD
Аудиокодек:
FLAC (*.flac)
Тип рипа:
image+.cue
Битрейт аудио:
lossless
Время звучания:
03:55:51
Наличие сканов:
нет
Релизёр (источник):
ssagwebster
Треклист:
 
CD1 {56:18}

John Jenkins, Clifford Jordan and Bobby Timmons (1957)
01. Cliff's Edge [6:32]
02. Tenderly [7:05]
03. Princess [6:18]
04. Soft Talk [10:34]
05. Blue Jay [7:08]
This Here Is Bobby Timmons (1960)
06. This Here [3:34]
07. Moanin' [5:08]
08. Lush Life [2:29]
09. The Party's Over [4:14]
10. Prelude to a Kiss [3:22]

 
Лог создания рипа
Exact Audio Copy V1.1 from 23. June 2015
EAC extraction logfile from 24. April 2016, 15:47
Bobby Timmons / Six Classic Albums CD1
Used drive  : PLEXTOR DVDR   PX-760A   Adapter: 1  ID: 1
Read mode               : Secure
Utilize accurate stream : Yes
Defeat audio cache      : Yes
Make use of C2 pointers : No
Read offset correction                      : 30
Overread into Lead-In and Lead-Out          : No
Fill up missing offset samples with silence : Yes
Delete leading and trailing silent blocks   : No
Null samples used in CRC calculations       : Yes
Used interface                              : Native Win32 interface for Win NT & 2000
Used output format              : User Defined Encoder
Selected bitrate                : 1024 kBit/s
Quality                         : High
Add ID3 tag                     : No
Command line compressor         : C:\Program Files (x86)\FLAC\flac.exe
Additional command line options : -5 -V -T "ARTIST=%artist%" -T "TITLE=%title%" -T "ALBUM=%albumtitle%" -T "DATE=%year%" -T "TRACKNUMBER=%tracknr%" -T "GENRE=%genre%" -T "COMMENT=[oStereo.ru]" %source%
TOC of the extracted CD
     Track |   Start  |  Length  | Start sector | End sector
    ---------------------------------------------------------
        1  |  0:00.00 |  6:31.05 |         0    |    29329
        2  |  6:31.05 |  7:04.29 |     29330    |    61158
        3  | 13:35.34 |  6:17.48 |     61159    |    89481
        4  | 19:53.07 | 10:33.18 |     89482    |   136974
        5  | 30:26.25 |  7:07.74 |    136975    |   169073
        6  | 37:34.24 |  3:33.32 |    169074    |   185080
        7  | 41:07.56 |  5:07.09 |    185081    |   208114
        8  | 46:14.65 |  2:28.19 |    208115    |   219233
        9  | 48:43.09 |  4:13.26 |    219234    |   238234
       10  | 52:56.35 |  3:21.69 |    238235    |   253378
Range status and errors
Selected range
     Filename D:\Bobby Timmons - Six Classic Albums - CD1.wav
     Peak level 100.0 %
     Extraction speed 1.2 X
     Range quality 100.0 %
     Copy CRC 37B129D4
     Copy OK
No errors occurred
AccurateRip summary
Track  1  accurately ripped (confidence 3)  [1705E66C]  (AR v2)
Track  2  accurately ripped (confidence 3)  [5851B231]  (AR v2)
Track  3  accurately ripped (confidence 3)  [67F6D4F6]  (AR v2)
Track  4  accurately ripped (confidence 3)  [4354DC26]  (AR v2)
Track  5  accurately ripped (confidence 3)  [CA83AF08]  (AR v2)
Track  6  accurately ripped (confidence 3)  [47644996]  (AR v2)
Track  7  accurately ripped (confidence 3)  [1EE10348]  (AR v2)
Track  8  accurately ripped (confidence 3)  [92527FAA]  (AR v2)
Track  9  accurately ripped (confidence 3)  [BA057777]  (AR v2)
Track 10  accurately ripped (confidence 3)  [8D54EF12]  (AR v2)
All tracks accurately ripped
End of status report
==== Log checksum 8A6F59DA093B006925ECF807DAE63B6575CC877983329432E11B1F20601396D2 ====
 
Содержание индексной карты (.CUE)
REM GENRE Jazz
REM DATE 2013
REM DISCID A30D320A
REM COMMENT "ExactAudioCopy v1.1"
PERFORMER "Bobby Timmons"
TITLE "Six Classic Albums CD1"
FILE "Bobby Timmons - Six Classic Albums CD1.wav" WAVE
  TRACK 01 AUDIO
    TITLE "Cliff's Edge"
    PERFORMER "Bobby Timmons"
    INDEX 01 00:00:00
  TRACK 02 AUDIO
    TITLE "Tenderly"
    PERFORMER "Bobby Timmons"
    INDEX 01 06:31:05
  TRACK 03 AUDIO
    TITLE "Princess"
    PERFORMER "Bobby Timmons"
    INDEX 01 13:35:34
  TRACK 04 AUDIO
    TITLE "Soft Talk"
    PERFORMER "Bobby Timmons"
    INDEX 01 19:53:07
  TRACK 05 AUDIO
    TITLE "Blue Jay"
    PERFORMER "Bobby Timmons"
    INDEX 01 30:26:25
  TRACK 06 AUDIO
    TITLE "This Here"
    PERFORMER "Bobby Timmons"
    INDEX 01 37:34:24
  TRACK 07 AUDIO
    TITLE "Moanin'"
    PERFORMER "Bobby Timmons"
    INDEX 01 41:07:56
  TRACK 08 AUDIO
    TITLE "Lush Life"
    PERFORMER "Bobby Timmons"
    INDEX 01 46:14:65
  TRACK 09 AUDIO
    TITLE "The Party's Over"
    PERFORMER "Bobby Timmons"
    INDEX 01 48:43:09
  TRACK 10 AUDIO
    TITLE "Prelude to a Kiss"
    PERFORMER "Bobby Timmons"
    INDEX 01 52:56:35
 
Отчет CUETools
[CUETools log; Date: 05.11.2018 22:48:11; Version: 2.1.5]
[CTDB TOCID: fk9WHpQw_4hjBM8EMic8.K0B_QY-] found.
Track | CTDB Status
  1   | (11/11) Accurately ripped
  2   | (11/11) Accurately ripped
  3   | (11/11) Accurately ripped
  4   | (11/11) Accurately ripped
  5   | (11/11) Accurately ripped
  6   | (11/11) Accurately ripped
  7   | (11/11) Accurately ripped
  8   | (11/11) Accurately ripped
  9   | (11/11) Accurately ripped
 10   | (11/11) Accurately ripped
[AccurateRip ID: 00184330-00bd3f41-a30d320a] found.
Track   [  CRC   |   V2   ] Status
 01     [faeb596a|1705e66c] (00+06/10) Accurately ripped
 02     [7c52e929|5851b231] (00+06/10) Accurately ripped
 03     [f0bb3cef|67f6d4f6] (00+06/10) Accurately ripped
 04     [a1a323ba|4354dc26] (00+06/10) Accurately ripped
 05     [0662c523|ca83af08] (00+06/10) Accurately ripped
 06     [92c27b2a|47644996] (00+06/10) Accurately ripped
 07     [4fdd3594|1ee10348] (00+06/10) Accurately ripped
 08     [87d5a9c1|92527faa] (00+06/10) Accurately ripped
 09     [6cd62895|ba057777] (00+06/10) Accurately ripped
 10     [e7fa9f32|8d54ef12] (00+06/10) Accurately ripped
Offsetted by -36:
 01     [d5b5a402] (00/10) No match (V2 was not tested)
 02     [dc9d69e1] (00/10) No match (V2 was not tested)
 03     [d9905cab] (00/10) No match (V2 was not tested)
 04     [440f387e] (00/10) No match (V2 was not tested)
 05     [060deb83] (00/10) No match (V2 was not tested)
 06     [8580283e] (00/10) No match (V2 was not tested)
 07     [8d84faf8] (00/10) No match (V2 was not tested)
 08     [7daa43ad] (00/10) No match (V2 was not tested)
 09     [0cffa3f1] (00/10) No match (V2 was not tested)
 10     [d6189372] (00/10) No match (V2 was not tested)
Track Peak [ CRC32  ] [W/O NULL] [  LOG   ]
 --  100,0 [37B129D4] [CCDC2C7E]   CRC32
 01   96,2 [11542C6D] [39D96D10]
 02   87,4 [E3780323] [C8705E8F]
 03   96,4 [A0E5FE71] [E93652D1]
 04   98,9 [9FCC3A0F] [ED0BC467]
 05  100,0 [8947D8E5] [B812B38C]
 06  100,0 [CA016BA8] [23DEB244]
 07   98,7 [04A14DF9] [E72D6371]
 08   99,9 [E79F68F5] [CF3DE569]
 09  100,0 [53A6C6AE] [06F79C90]
 10   98,7 [DC00037F] [E3A9FEDD]
 
CD2 {60:16}

This Here Is Bobby Timmions (1960) cont.
01. Dat Dere [5:25]
02. My Funny Valentine [5:08]
03. Come Rain or Come Shine [4:31]
04. Joy Ride [3:59]
Soul Time (1960)
05. Soul Time [6:24]
06. So Tired [6:17]
07. The Touch of Your Lips [4:16]
08. S'posin' [5:14]
09. Stella B [5:53]
10. You Don't Know What Love Is [6:18]
11. One Mo' [6:55]

 
Лог создания рипа
Exact Audio Copy V1.1 from 23. June 2015
EAC extraction logfile from 24. April 2016, 17:14
Bobby Timmons / Six Classic Albums CD2
Used drive  : PLEXTOR DVDR   PX-760A   Adapter: 1  ID: 1
Read mode               : Secure
Utilize accurate stream : Yes
Defeat audio cache      : Yes
Make use of C2 pointers : No
Read offset correction                      : 30
Overread into Lead-In and Lead-Out          : No
Fill up missing offset samples with silence : Yes
Delete leading and trailing silent blocks   : No
Null samples used in CRC calculations       : Yes
Used interface                              : Native Win32 interface for Win NT & 2000
Used output format              : User Defined Encoder
Selected bitrate                : 1024 kBit/s
Quality                         : High
Add ID3 tag                     : No
Command line compressor         : C:\Program Files (x86)\FLAC\flac.exe
Additional command line options : -5 -V -T "ARTIST=%artist%" -T "TITLE=%title%" -T "ALBUM=%albumtitle%" -T "DATE=%year%" -T "TRACKNUMBER=%tracknr%" -T "GENRE=%genre%" -T "COMMENT=[oStereo.ru]" %source%
TOC of the extracted CD
     Track |   Start  |  Length  | Start sector | End sector
    ---------------------------------------------------------
        1  |  0:00.00 |  5:24.61 |         0    |    24360
        2  |  5:24.61 |  5:07.39 |     24361    |    47424
        3  | 10:32.25 |  4:30.61 |     47425    |    67735
        4  | 15:03.11 |  3:59.00 |     67736    |    85660
        5  | 19:02.11 |  6:23.57 |     85661    |   114442
        6  | 25:25.68 |  6:16.33 |    114443    |   142675
        7  | 31:42.26 |  4:15.35 |    142676    |   161835
        8  | 35:57.61 |  5:13.57 |    161836    |   185367
        9  | 41:11.43 |  5:52.41 |    185368    |   211808
       10  | 47:04.09 |  6:17.47 |    211809    |   240130
       11  | 53:21.56 |  6:54.05 |    240131    |   271185
Range status and errors
Selected range
     Filename D:\Bobby Timmons - Six Classic Albums - CD2.wav
     Peak level 100.0 %
     Extraction speed 1.2 X
     Range quality 99.9 %
     Copy CRC 1E37DFC4
     Copy OK
No errors occurred
AccurateRip summary
Track  1  accurately ripped (confidence 3)  [8028B12D]  (AR v2)
Track  2  accurately ripped (confidence 3)  [2A782B03]  (AR v2)
Track  3  accurately ripped (confidence 3)  [C89EAD0D]  (AR v2)
Track  4  accurately ripped (confidence 3)  [89B4C95A]  (AR v2)
Track  5  accurately ripped (confidence 3)  [7BF9C3F4]  (AR v2)
Track  6  accurately ripped (confidence 3)  [4EFEB3DF]  (AR v2)
Track  7  accurately ripped (confidence 3)  [DE7F27F8]  (AR v2)
Track  8  accurately ripped (confidence 3)  [8FA8A6DB]  (AR v2)
Track  9  accurately ripped (confidence 3)  [03F3568C]  (AR v2)
Track 10  accurately ripped (confidence 3)  [038BC189]  (AR v2)
Track 11  accurately ripped (confidence 3)  [77DCE8DB]  (AR v2)
All tracks accurately ripped
End of status report
==== Log checksum 306DE94B4CC9BA324421E890D09A21425062B71518CB474FE0A54281CBF5827D ====
 
Содержание индексной карты (.CUE)
REM GENRE Jazz
REM DATE 2013
REM DISCID 8A0E1F0B
REM COMMENT "ExactAudioCopy v1.1"
PERFORMER "Bobby Timmons"
TITLE "Six Classic Albums CD2"
FILE "Bobby Timmons - Six Classic Albums CD2.wav" WAVE
  TRACK 01 AUDIO
    TITLE "Dat Dere"
    PERFORMER "Bobby Timmons"
    INDEX 01 00:00:00
  TRACK 02 AUDIO
    TITLE "My Funny Valentine"
    PERFORMER "Bobby Timmons"
    INDEX 01 05:24:61
  TRACK 03 AUDIO
    TITLE "Come Rain or Come Shine"
    PERFORMER "Bobby Timmons"
    INDEX 01 10:32:25
  TRACK 04 AUDIO
    TITLE "Joy Ride"
    PERFORMER "Bobby Timmons"
    INDEX 01 15:03:11
  TRACK 05 AUDIO
    TITLE "Soul Time"
    PERFORMER "Bobby Timmons"
    INDEX 01 19:02:11
  TRACK 06 AUDIO
    TITLE "So Tired"
    PERFORMER "Bobby Timmons"
    INDEX 01 25:25:68
  TRACK 07 AUDIO
    TITLE "The Touch of Your Lips"
    PERFORMER "Bobby Timmons"
    INDEX 01 31:42:26
  TRACK 08 AUDIO
    TITLE "S'posin'"
    PERFORMER "Bobby Timmons"
    INDEX 01 35:57:61
  TRACK 09 AUDIO
    TITLE "Stella B"
    PERFORMER "Bobby Timmons"
    INDEX 01 41:11:43
  TRACK 10 AUDIO
    TITLE "You Don't Know What Love Is"
    PERFORMER "Bobby Timmons"
    INDEX 01 47:04:09
  TRACK 11 AUDIO
    TITLE "One Mo'"
    PERFORMER "Bobby Timmons"
    INDEX 01 53:21:56
 
Отчет CUETools
[CUETools log; Date: 05.11.2018 22:48:16; Version: 2.1.5]
[CTDB TOCID: K3M4Rb6ObriWkyTLY2nvU12gMzw-] found.
Track | CTDB Status
  1   | (13/13) Accurately ripped
  2   | (13/13) Accurately ripped
  3   | (13/13) Accurately ripped
  4   | (13/13) Accurately ripped
  5   | (13/13) Accurately ripped
  6   | (12/13) Accurately ripped
  7   | (12/13) Accurately ripped
  8   | (12/13) Accurately ripped
  9   | (13/13) Accurately ripped
 10   | (13/13) Accurately ripped
 11   | (13/13) Accurately ripped
[AccurateRip ID: 0017b0f8-00cecb10-8a0e1f0b] found.
Track   [  CRC   |   V2   ] Status
 01     [a4c54f4c|8028b12d] (00+06/10) Accurately ripped
 02     [8c1633b0|2a782b03] (00+06/10) Accurately ripped
 03     [b5642339|c89ead0d] (00+06/10) Accurately ripped
 04     [037d9160|89b4c95a] (00+06/10) Accurately ripped
 05     [6af896dd|7bf9c3f4] (00+06/10) Accurately ripped
 06     [a2c1b006|4efeb3df] (00+06/10) Accurately ripped
 07     [d4e1b175|de7f27f8] (00+06/10) Accurately ripped
 08     [85e9cd43|8fa8a6db] (00+06/10) Accurately ripped
 09     [8657410e|03f3568c] (00+06/10) Accurately ripped
 10     [11017e6d|038bc189] (00+06/10) Accurately ripped
 11     [fa4a82f8|77dce8db] (00+06/10) Accurately ripped
Offsetted by -36:
 01     [a18b752c] (00/10) No match (V2 was not tested)
 02     [ce4daec8] (00/10) No match (V2 was not tested)
 03     [71c32329] (00/10) No match (V2 was not tested)
 04     [fd401898] (00/10) No match (V2 was not tested)
 05     [a4f76c39] (00/10) No match (V2 was not tested)
 06     [c66bbdc2] (00/10) No match (V2 was not tested)
 07     [73a80529] (00/10) No match (V2 was not tested)
 08     [0ab04eef] (00/10) No match (V2 was not tested)
 09     [6f118982] (00/10) No match (V2 was not tested)
 10     [53f81459] (00/10) No match (V2 was not tested)
 11     [849b7318] (00/10) No match (V2 was not tested)
Track Peak [ CRC32  ] [W/O NULL] [  LOG   ]
 --  100,0 [1E37DFC4] [59F57D9E]   CRC32
 01   80,7 [70C1CB12] [3D6F62F0]
 02   68,8 [E1E9B3A8] [871EB275]
 03   98,7 [AEC2744F] [85FEBB93]
 04   98,7 [F542CAC1] [AE455589]
 05  100,0 [ECFC1098] [AA25C1A6]
 06   98,7 [86065F5C] [909AB05C]
 07   98,7 [2788AFA7] [2616836E]
 08   98,7 [5F85FA68] [5EE7F67D]
 09   98,7 [C6DC3F30] [E1003346]
 10   93,4 [2460DDE4] [5F32A8FE]
 11   98,7 [048F84E7] [4563C2B8]
 
CD3 {78:25}

East Does It (1961)
01. Easy Does It [4:52]
02. Old Devil Moon [4:37]
03. A Little Busy [5:51]
04. I Don't Stand a Ghost of a Chance with You [4:54]
05. Pretty Memory [3:31]
06. If You Could See Me Now [6:30]
07. I Thought About You [4:59]
08. Groovin' High [3:33]
Sweet and Soulful Sounds (1962)
09. The Sweetest Sounds [4:56]
10. Turn Left [5:28]
11. God Bless the Child [5:02]
12. You'd Be So Nice to Come Home To [4:37]
13. Another One Live [4:11]
14. Alone Together [6:01]
15. Spring Can Really Hang You Up the Most [3:40]
16. Why Was I Born [5:50]

 
Лог создания рипа
Exact Audio Copy V1.1 from 23. June 2015
EAC extraction logfile from 24. April 2016, 19:13
Bobby Timmons / Six Classic Albums CD3
Used drive  : PLEXTOR DVDR   PX-760A   Adapter: 1  ID: 1
Read mode               : Secure
Utilize accurate stream : Yes
Defeat audio cache      : Yes
Make use of C2 pointers : No
Read offset correction                      : 30
Overread into Lead-In and Lead-Out          : No
Fill up missing offset samples with silence : Yes
Delete leading and trailing silent blocks   : No
Null samples used in CRC calculations       : Yes
Used interface                              : Native Win32 interface for Win NT & 2000
Used output format              : User Defined Encoder
Selected bitrate                : 1024 kBit/s
Quality                         : High
Add ID3 tag                     : No
Command line compressor         : C:\Program Files (x86)\FLAC\flac.exe
Additional command line options : -5 -V -T "ARTIST=%artist%" -T "TITLE=%title%" -T "ALBUM=%albumtitle%" -T "DATE=%year%" -T "TRACKNUMBER=%tracknr%" -T "GENRE=%genre%" -T "COMMENT=[oStereo.ru]" %source%
TOC of the extracted CD
     Track |   Start  |  Length  | Start sector | End sector
    ---------------------------------------------------------
        1  |  0:00.00 |  4:51.51 |         0    |    21875
        2  |  4:51.51 |  4:36.02 |     21876    |    42577
        3  |  9:27.53 |  5:50.53 |     42578    |    68880
        4  | 15:18.31 |  4:53.16 |     68881    |    90871
        5  | 20:11.47 |  3:30.10 |     90872    |   106631
        6  | 23:41.57 |  6:29.68 |    106632    |   135874
        7  | 30:11.50 |  4:58.70 |    135875    |   158294
        8  | 35:10.45 |  3:32.21 |    158295    |   174215
        9  | 38:42.66 |  4:55.42 |    174216    |   196382
       10  | 43:38.33 |  5:27.48 |    196383    |   220955
       11  | 49:06.06 |  5:01.47 |    220956    |   243577
       12  | 54:07.53 |  4:36.27 |    243578    |   264304
       13  | 58:44.05 |  4:11.00 |    264305    |   283129
       14  | 62:55.05 |  6:00.47 |    283130    |   310176
       15  | 68:55.52 |  3:39.37 |    310177    |   326638
       16  | 72:35.14 |  5:49.56 |    326639    |   352869
Range status and errors
Selected range
     Filename D:\Bobby Timmons - Six Classic Albums - CD3.wav
     Peak level 98.8 %
     Extraction speed 1.2 X
     Range quality 100.0 %
     Copy CRC 283DF042
     Copy OK
No errors occurred
AccurateRip summary
Track  1  accurately ripped (confidence 3)  [0CECDE36]  (AR v2)
Track  2  accurately ripped (confidence 3)  [4DAB5F1A]  (AR v2)
Track  3  accurately ripped (confidence 3)  [5AC8B626]  (AR v2)
Track  4  accurately ripped (confidence 3)  [C176CE2A]  (AR v2)
Track  5  accurately ripped (confidence 3)  [DA4DE32A]  (AR v2)
Track  6  accurately ripped (confidence 3)  [481BDDF5]  (AR v2)
Track  7  accurately ripped (confidence 3)  [47B1A194]  (AR v2)
Track  8  accurately ripped (confidence 3)  [7DFDD95C]  (AR v2)
Track  9  accurately ripped (confidence 3)  [C262EB53]  (AR v2)
Track 10  accurately ripped (confidence 3)  [A37DE5B5]  (AR v2)
Track 11  accurately ripped (confidence 3)  [859F3F09]  (AR v2)
Track 12  accurately ripped (confidence 3)  [AF115CA7]  (AR v2)
Track 13  accurately ripped (confidence 3)  [9D2582FA]  (AR v2)
Track 14  accurately ripped (confidence 3)  [6ED523EC]  (AR v2)
Track 15  accurately ripped (confidence 3)  [208B9921]  (AR v2)
Track 16  accurately ripped (confidence 3)  [4C4D3C51]  (AR v2)
All tracks accurately ripped
End of status report
==== Log checksum FE19EAF27D0A4CF3B29701D6FEE936798FFFDFDE0A543752E70CB44EE3B526B8 ====
 
Содержание индексной карты (.CUE)
REM GENRE Jazz
REM DATE 2013
REM DISCID DB126010
REM COMMENT "ExactAudioCopy v1.1"
PERFORMER "Bobby Timmons"
TITLE "Six Classic Albums CD3"
FILE "Bobby Timmons - Six Classic Albums CD3.wav" WAVE
  TRACK 01 AUDIO
    TITLE "Easy Does It"
    PERFORMER "Bobby Timmons"
    INDEX 01 00:00:00
  TRACK 02 AUDIO
    TITLE "Old Devil Moon"
    PERFORMER "Bobby Timmons"
    INDEX 01 04:51:51
  TRACK 03 AUDIO
    TITLE "A Little Busy"
    PERFORMER "Bobby Timmons"
    INDEX 01 09:27:53
  TRACK 04 AUDIO
    TITLE "I Don't Stand a Ghost of a Chance with You"
    PERFORMER "Bobby Timmons"
    INDEX 01 15:18:31
  TRACK 05 AUDIO
    TITLE "Pretty Memory"
    PERFORMER "Bobby Timmons"
    INDEX 01 20:11:47
  TRACK 06 AUDIO
    TITLE "If You Could See Me Now"
    PERFORMER "Bobby Timmons"
    INDEX 01 23:41:57
  TRACK 07 AUDIO
    TITLE "I Thought About You"
    PERFORMER "Bobby Timmons"
    INDEX 01 30:11:50
  TRACK 08 AUDIO
    TITLE "Groovin' High"
    PERFORMER "Bobby Timmons"
    INDEX 01 35:10:45
  TRACK 09 AUDIO
    TITLE "The Sweetest Sounds"
    PERFORMER "Bobby Timmons"
    INDEX 01 38:42:66
  TRACK 10 AUDIO
    TITLE "Turn Left"
    PERFORMER "Bobby Timmons"
    INDEX 01 43:38:33
  TRACK 11 AUDIO
    TITLE "God Bless the Child"
    PERFORMER "Bobby Timmons"
    INDEX 01 49:06:06
  TRACK 12 AUDIO
    TITLE "You'd Be So Nice to Come Home To"
    PERFORMER "Bobby Timmons"
    INDEX 01 54:07:53
  TRACK 13 AUDIO
    TITLE "Another Live One"
    PERFORMER "Bobby Timmons"
    INDEX 01 58:44:05
  TRACK 14 AUDIO
    TITLE "Alone Together"
    PERFORMER "Bobby Timmons"
    INDEX 01 62:55:05
  TRACK 15 AUDIO
    TITLE "Spring Can Really Hang You Up the Most"
    PERFORMER "Bobby Timmons"
    INDEX 01 68:55:52
  TRACK 16 AUDIO
    TITLE "Why Was I Born"
    PERFORMER "Bobby Timmons"
    INDEX 01 72:35:14
 
Отчет CUETools
[CUETools log; Date: 05.11.2018 22:48:22; Version: 2.1.5]
[CTDB TOCID: IadkvzVPIkdDdTbk4hYjeA71bCI-] found.
Track | CTDB Status
  1   | (9/9) Accurately ripped
  2   | (9/9) Accurately ripped
  3   | (9/9) Accurately ripped
  4   | (9/9) Accurately ripped
  5   | (9/9) Accurately ripped
  6   | (9/9) Accurately ripped
  7   | (9/9) Accurately ripped
  8   | (9/9) Accurately ripped
  9   | (9/9) Accurately ripped
 10   | (9/9) Accurately ripped
 11   | (9/9) Accurately ripped
 12   | (9/9) Accurately ripped
 13   | (9/9) Accurately ripped
 14   | (9/9) Accurately ripped
 15   | (9/9) Accurately ripped
 16   | (8/9) Accurately ripped
[AccurateRip ID: 002dbc0f-02241db0-db126010] found.
Track   [  CRC   |   V2   ] Status
 01     [d9b6613f|0cecde36] (00+06/10) Accurately ripped
 02     [f8209ceb|4dab5f1a] (00+06/10) Accurately ripped
 03     [1d96aaa5|5ac8b626] (00+06/10) Accurately ripped
 04     [d0d07f84|c176ce2a] (00+06/10) Accurately ripped
 05     [b8798fb8|da4de32a] (00+06/10) Accurately ripped
 06     [0933994c|481bddf5] (00+06/10) Accurately ripped
 07     [5139fbfa|47b1a194] (00+06/10) Accurately ripped
 08     [206b46bf|7dfdd95c] (00+06/10) Accurately ripped
 09     [9d13dd55|c262eb53] (00+06/10) Accurately ripped
 10     [482b380f|a37de5b5] (00+06/10) Accurately ripped
 11     [84c86aa2|859f3f09] (00+06/10) Accurately ripped
 12     [bbe7f5fe|af115ca7] (00+06/10) Accurately ripped
 13     [dc9f5c96|9d2582fa] (00+06/10) Accurately ripped
 14     [185a6d72|6ed523ec] (00+06/10) Accurately ripped
 15     [ce4461e5|208b9921] (00+06/10) Accurately ripped
 16     [e4ff58ec|4c4d3c51] (00+06/10) Accurately ripped
Offsetted by 6:
 01     [4b0bf389] (00/10) No match (V2 was not tested)
 02     [8e921e9b] (00/10) No match (V2 was not tested)
 03     [8143c559] (00/10) No match (V2 was not tested)
 04     [21e8f1a8] (00/10) No match (V2 was not tested)
 05     [538dd1cc] (00/10) No match (V2 was not tested)
 06     [d383b7ea] (00/10) No match (V2 was not tested)
 07     [65daa1dc] (00/10) No match (V2 was not tested)
 08     [afe537b3] (00/10) No match (V2 was not tested)
 09     [c57ec287] (00/10) No match (V2 was not tested)
 10     [3ab3081f] (00/10) No match (V2 was not tested)
 11     [8e63322a] (00/10) No match (V2 was not tested)
 12     [74fb39d0] (00/10) No match (V2 was not tested)
 13     [4ab688ea] (00/10) No match (V2 was not tested)
 14     [eba48cea] (00/10) No match (V2 was not tested)
 15     [d56d1e9d] (00/10) No match (V2 was not tested)
 16     [80a61a7e] (00/10) No match (V2 was not tested)
Track Peak [ CRC32  ] [W/O NULL] [  LOG   ]
 --   98,8 [283DF042] [13BEDC19]   CRC32
 01   98,2 [60F03C0D] [AD106E9E]
 02   98,2 [E2EC2886] [8D652E2B]
 03   98,2 [3A133B14] [13C9CDA0]
 04   81,4 [3F442BF5] [3544ABE6]
 05   97,3 [8C4EBC0D] [80352453]
 06   68,2 [E1ECFD39] [4D3B75EA]
 07   97,3 [71C3DE41] [883E2C4E]
 08   98,2 [16E600E9] [6B12EB11]
 09   95,6 [A9D85BCD] [350126FA]
 10   97,9 [0C00E45F] [46CC08F8]
 11   78,0 [34DE43BF] [F5D2587B]
 12   88,2 [4C4A7C66] [8F562261]
 13   98,8 [C5521CD8] [AC90875D]
 14   98,5 [EB3F8BBD] [AF6888F8]
 15   89,2 [9D6EFC40] [DFA4326F]
 16   98,0 [566ADCC4] [F8BA670C]
 
CD4 {40:52}

In Person (1961)
01. Autumn Leaves [7:59]
02. So Tired [6:25]
03. Goodbye [4:47]
04. Dat Dare [0:52]
05. Popsy [6:13]
06. I Didn't Know What Time It Was [8:14]
07. Softly, as in a Morning Sunrise [5:31]
08. Dat Dere (Theme) [0:55]

 
Лог создания рипа
Exact Audio Copy V1.1 from 23. June 2015
EAC extraction logfile from 24. April 2016, 19:57
The Bobby Timmons Trio / In Person
Used drive  : PLEXTOR DVDR   PX-760A   Adapter: 1  ID: 1
Read mode               : Secure
Utilize accurate stream : Yes
Defeat audio cache      : Yes
Make use of C2 pointers : No
Read offset correction                      : 30
Overread into Lead-In and Lead-Out          : No
Fill up missing offset samples with silence : Yes
Delete leading and trailing silent blocks   : No
Null samples used in CRC calculations       : Yes
Used interface                              : Native Win32 interface for Win NT & 2000
Used output format              : User Defined Encoder
Selected bitrate                : 1024 kBit/s
Quality                         : High
Add ID3 tag                     : No
Command line compressor         : C:\Program Files (x86)\FLAC\flac.exe
Additional command line options : -5 -V -T "ARTIST=%artist%" -T "TITLE=%title%" -T "ALBUM=%albumtitle%" -T "DATE=%year%" -T "TRACKNUMBER=%tracknr%" -T "GENRE=%genre%" -T "COMMENT=[oStereo.ru]" %source%
TOC of the extracted CD
     Track |   Start  |  Length  | Start sector | End sector
    ---------------------------------------------------------
        1  |  0:00.00 |  7:58.21 |         0    |    35870
        2  |  7:58.21 |  6:24.31 |     35871    |    64701
        3  | 14:22.52 |  4:46.01 |     64702    |    86152
        4  | 19:08.53 |  0:51.28 |     86153    |    90005
        5  | 20:00.06 |  6:12.33 |     90006    |   117938
        6  | 26:12.39 |  8:13.60 |    117939    |   154973
        7  | 34:26.24 |  5:30.60 |    154974    |   179783
        8  | 39:57.09 |  0:54.68 |    179784    |   183901
Range status and errors
Selected range
     Filename D:\Bobby Timmons - Six Classic Albums - CD4.wav
     Peak level 73.8 %
     Extraction speed 1.2 X
     Range quality 100.0 %
     Copy CRC 6B40ECE3
     Copy OK
No errors occurred
AccurateRip summary
Track  1  accurately ripped (confidence 2)  [15ECB78D]  (AR v2)
Track  2  accurately ripped (confidence 2)  [3F2E3A02]  (AR v2)
Track  3  accurately ripped (confidence 3)  [750B315F]  (AR v2)
Track  4  accurately ripped (confidence 2)  [3C7BFD6F]  (AR v2)
Track  5  accurately ripped (confidence 2)  [2F986344]  (AR v2)
Track  6  accurately ripped (confidence 2)  [CC9A352E]  (AR v2)
Track  7  accurately ripped (confidence 2)  [A0B28674]  (AR v2)
Track  8  accurately ripped (confidence 2)  [3EDE7347]  (AR v2)
All tracks accurately ripped
End of status report
==== Log checksum CFF2794C715F94BBD617A8718591242F9AE768FF836A9BEBCAFA627EED153BDB ====
 
Содержание индексной карты (.CUE)
REM GENRE Jazz
REM DATE 2013
REM DISCID 64099408
REM COMMENT "ExactAudioCopy v1.1"
PERFORMER "Bobby Timmons"
TITLE "Six Classic Albums CD4"
FILE "Bobby Timmons - Six Classic Albums CD4.wav" WAVE
  TRACK 01 AUDIO
    TITLE "Autumn Leaves"
    PERFORMER "Bobby Timmons"
    INDEX 01 00:00:00
  TRACK 02 AUDIO
    TITLE "So Tired"
    PERFORMER "Bobby Timmons"
    INDEX 01 07:58:21
  TRACK 03 AUDIO
    TITLE "Goodbye"
    PERFORMER "Bobby Timmons"
    INDEX 01 14:22:52
  TRACK 04 AUDIO
    TITLE "Dat Dere"
    PERFORMER "Bobby Timmons"
    INDEX 01 19:08:53
  TRACK 05 AUDIO
    TITLE "Popsy"
    PERFORMER "Bobby Timmons"
    INDEX 01 20:00:06
  TRACK 06 AUDIO
    TITLE "I Didn't Know What Time It Was"
    PERFORMER "Bobby Timmons"
    INDEX 01 26:12:39
  TRACK 07 AUDIO
    TITLE "Softly, as in a Morning Sunrise"
    PERFORMER "Bobby Timmons"
    INDEX 01 34:26:24
  TRACK 08 AUDIO
    TITLE "Dat Dere (Theme)"
    PERFORMER "Bobby Timmons"
    INDEX 01 39:57:09
 
Отчет CUETools
[CUETools log; Date: 05.11.2018 22:48:25; Version: 2.1.5]
[CTDB TOCID: Md8kPgGpAY7GrEOdgGtzzj2UeiE-] found.
Track | CTDB Status
  1   | (14/15) Accurately ripped
  2   | (14/15) Accurately ripped
  3   | (14/15) Accurately ripped
  4   | (14/15) Accurately ripped
  5   | (14/15) Accurately ripped
  6   | (14/15) Accurately ripped
  7   | (14/15) Accurately ripped
  8   | (15/15) Accurately ripped
[AccurateRip ID: 000defb3-005abbdd-64099408] found.
Track   [  CRC   |   V2   ] Status
 01     [24d7f150|15ecb78d] (00+05/09) Accurately ripped
 02     [a745f523|3f2e3a02] (00+05/09) Accurately ripped
 03     [68944681|750b315f] (00+06/10) Accurately ripped
 04     [6451e4b9|3c7bfd6f] (00+05/09) Accurately ripped
 05     [0d7fb3f0|2f986344] (00+05/09) Accurately ripped
 06     [42f3616c|cc9a352e] (00+05/09) Accurately ripped
 07     [721363bf|a0b28674] (00+05/09) Accurately ripped
 08     [92b825ce|3ede7347] (00+05/09) Accurately ripped
Offsetted by -36:
 01     [4195a74e] (00/09) No match (V2 was not tested)
 02     [b9238390] (00/09) No match (V2 was not tested)
 03     [1428a153] (00/10) No match (V2 was not tested)
 04     [c3839014] (00/09) No match (V2 was not tested)
 05     [4d5164d9] (00/09) No match (V2 was not tested)
 06     [22b9964d] (00/09) No match (V2 was not tested)
 07     [8fd82c43] (00/09) No match (V2 was not tested)
 08     [336c6738] (00/09) No match (V2 was not tested)
Track Peak [ CRC32  ] [W/O NULL] [  LOG   ]
 --   73,8 [6B40ECE3] [69A8DB9F]   CRC32
 01   73,8 [AAC8B2F6] [338D2417]
 02   73,8 [DA314B48] [6CE54E72]
 03   56,5 [E310E7E7] [1B59D801]
 04   51,0 [D6025B41] [2EA7A56A]
 05   65,4 [2F69F96F] [4DE5628F]
 06   73,0 [5476D48F] [B3E2C545]
 07   59,2 [8D75C636] [06980EB3]
 08   52,4 [50AD9FC2] [DF093CAF]
Приватный:
Нет (DHT включён)
Размер:
1.19 Гб (1,279,922,895 байт) » файлов: 27
Участники:
4 раздают, 0 качают (4 участников всего)
Внешние участники:
7 раздают, 2 качают (9 участников всего) [ Обновить ]
11:17
9
Нет комментариев. Ваш будет первым!