Поиск

1960-1961 Horace Parlan - Seven Classic Albums (2012) {Real Gone Jazz RGJCD340} [4CD]

1960-1961 Horace Parlan - Seven Classic Albums (2012) {Real Gone Jazz RGJCD340} [4CD]
Стили:
Страна-производитель диска (релиза):
EU
Дата издания диска:
1961-1962
Дата переиздания диска:
2012
Издатель (лейбл):
Номер по каталогу:
RGJCD340
Носитель:
CD
Аудиокодек:
FLAC (*.flac)
Тип рипа:
image+.cue
Битрейт аудио:
lossless
Время звучания:
04:53:17
Наличие сканов:
да
Релизёр (источник):
ssagwebster
Треклист:
 
CD1 {71:58}

Movin' & Groovin' (1960)
01. C Jam Blues [5:12]
02. On Green Dolphin Street [5:30]
03. Up in Cynthia's Room [5:26]
04. Lady Bird [5:04]
05. Bag's Groove [5:49]
06. Stella By Starlight [6:04]
07. There Is No Greater Love [6:46]
08. It Could Happen to You [3:19]
Us Three (1960)
09. Us Three [4:33]
10. I Want to Be Loved [04:52]
11. Come Rain or Come Shine [6:26]
12. Wadin' [5:53]
13. The Lady Is a Tramp [7:10]

 
Лог создания рипа
Exact Audio Copy V1.0 beta 3 from 29. August 2011
EAC extraction logfile from 22. July 2017, 13:43
Horace Parlan / CD1 - Movin' & Groovin' and Us Three
Used drive  : TSSTcorpCDDVDW SH-224FB   Adapter: 1  ID: 0
Read mode               : Secure
Utilize accurate stream : Yes
Defeat audio cache      : Yes
Make use of C2 pointers : No
Read offset correction                      : 6
Overread into Lead-In and Lead-Out          : No
Fill up missing offset samples with silence : Yes
Delete leading and trailing silent blocks   : No
Null samples used in CRC calculations       : Yes
Used interface                              : Native Win32 interface for Win NT & 2000
Used output format              : User Defined Encoder
Selected bitrate                : 128 kBit/s
Quality                         : High
Add ID3 tag                     : No
Command line compressor         : C:\Program Files (x86)\Exact Audio Copy\Flac\flac.exe
Additional command line options : -V -8 -T "Genre=%genre%" -T "Artist=%artist%" -T "Title=%title%" -T "Album=%albumtitle%" -T "Date=%year%" -T "Tracknumber=%tracknr%" -T "Comment=%comment%" %source%
TOC of the extracted CD
     Track |   Start  |  Length  | Start sector | End sector
    ---------------------------------------------------------
        1  |  0:00.00 |  5:11.53 |         0    |    23377
        2  |  5:11.53 |  5:29.45 |     23378    |    48097
        3  | 10:41.23 |  5:25.66 |     48098    |    72538
        4  | 16:07.14 |  5:03.09 |     72539    |    95272
        5  | 21:10.23 |  5:48.35 |     95273    |   121407
        6  | 26:58.58 |  6:03.62 |    121408    |   148694
        7  | 33:02.45 |  6:45.74 |    148695    |   179143
        8  | 39:48.44 |  3:18.34 |    179144    |   194027
        9  | 43:07.03 |  4:32.61 |    194028    |   214488
       10  | 47:39.64 |  4:51.10 |    214489    |   236323
       11  | 52:30.74 |  6:25.26 |    236324    |   265224
       12  | 58:56.25 |  5:52.32 |    265225    |   291656
       13  | 64:48.57 |  7:09.09 |    291657    |   323840
Range status and errors
Selected range
     Filename D:\Download\Horace Parlan - Seven Classic Albums (4CD, 2012)\CD1 - Movin' & Groovin' and Us Three\Horace Parlan - CD1 - Movin' & Groovin' and Us Three.wav
     Peak level 100.0 %
     Extraction speed 3.4 X
     Range quality 100.0 %
     Test CRC 717D8BF3
     Copy CRC 717D8BF3
     Copy OK
No errors occurred
AccurateRip summary
Track  1  accurately ripped (confidence 3)  [9C0ED44C]  (AR v2)
Track  2  accurately ripped (confidence 3)  [F158A508]  (AR v2)
Track  3  accurately ripped (confidence 3)  [10CB6CFC]  (AR v2)
Track  4  accurately ripped (confidence 3)  [D770D563]  (AR v2)
Track  5  accurately ripped (confidence 3)  [550DD9A9]  (AR v2)
Track  6  accurately ripped (confidence 3)  [5676804A]  (AR v2)
Track  7  accurately ripped (confidence 3)  [BE2ADDD7]  (AR v2)
Track  8  accurately ripped (confidence 3)  [F587E35C]  (AR v2)
Track  9  accurately ripped (confidence 3)  [587A11A0]  (AR v2)
Track 10  accurately ripped (confidence 3)  [205948F5]  (AR v2)
Track 11  accurately ripped (confidence 3)  [76C2D309]  (AR v2)
Track 12  accurately ripped (confidence 3)  [FC6B16A9]  (AR v2)
Track 13  accurately ripped (confidence 3)  [3E475028]  (AR v2)
All tracks accurately ripped
End of status report
==== Log checksum C8B38A2219AFD0C022F31D82FC6A5B09877D88BB2C3BD9B1CF6963BCFB993FA3 ====
 
Содержание индексной карты (.CUE)
REM GENRE Jazz
REM DATE 2012
REM DISCID C210DD0D
REM COMMENT "ExactAudioCopy v1.0b3"
PERFORMER "Horace Parlan"
TITLE "Seven Classic Albums CD1"
FILE "Horace Parlan - Seven Classic Albums CD1.wav" WAVE
  TRACK 01 AUDIO
    TITLE "C Jam Blues"
    PERFORMER "Horace Parlan"
    INDEX 01 00:00:00
  TRACK 02 AUDIO
    TITLE "On Green Dolphin Street"
    PERFORMER "Horace Parlan"
    INDEX 01 05:11:53
  TRACK 03 AUDIO
    TITLE "Up in Cynthia's Room"
    PERFORMER "Horace Parlan"
    INDEX 01 10:41:23
  TRACK 04 AUDIO
    TITLE "Lady Bird"
    PERFORMER "Horace Parlan"
    INDEX 01 16:07:14
  TRACK 05 AUDIO
    TITLE "Bag's Groove"
    PERFORMER "Horace Parlan"
    INDEX 01 21:10:23
  TRACK 06 AUDIO
    TITLE "Stella by Starlight"
    PERFORMER "Horace Parlan"
    INDEX 01 26:58:58
  TRACK 07 AUDIO
    TITLE "There Is No Greater Love"
    PERFORMER "Horace Parlan"
    INDEX 01 33:02:45
  TRACK 08 AUDIO
    TITLE "It Could Happen to You"
    PERFORMER "Horace Parlan"
    INDEX 01 39:48:44
  TRACK 09 AUDIO
    TITLE "Us Three"
    PERFORMER "Horace Parlan"
    INDEX 01 43:07:03
  TRACK 10 AUDIO
    TITLE "I Want to Be Loved"
    PERFORMER "Horace Parlan"
    INDEX 01 47:39:64
  TRACK 11 AUDIO
    TITLE "Come Rain or Come Shine"
    PERFORMER "Horace Parlan"
    INDEX 01 52:30:74
  TRACK 12 AUDIO
    TITLE "Wadin'"
    PERFORMER "Horace Parlan"
    INDEX 01 58:56:25
  TRACK 13 AUDIO
    TITLE "The Lady Is a Tramp"
    PERFORMER "Horace Parlan"
    INDEX 01 64:48:57
 
Отчет CUETools
[CUETools log; Date: 05.11.2018 22:15:44; Version: 2.1.5]
[CTDB TOCID: boR_2uc5KDEoUeJjwmxjw8irats-] found.
Track | CTDB Status
  1   | (13/13) Accurately ripped
  2   | (13/13) Accurately ripped
  3   | (13/13) Accurately ripped
  4   | (13/13) Accurately ripped
  5   | (13/13) Accurately ripped
  6   | (13/13) Accurately ripped
  7   | (13/13) Accurately ripped
  8   | (13/13) Accurately ripped
  9   | (13/13) Accurately ripped
 10   | (12/13) Accurately ripped
 11   | (12/13) Accurately ripped
 12   | (13/13) Accurately ripped
 13   | (13/13) Accurately ripped
[AccurateRip ID: 0021c8d3-01521da6-c210dd0d] found.
Track   [  CRC   |   V2   ] Status
 01     [6328231f|9c0ed44c] (0+4/8) Accurately ripped
 02     [f31cbc6e|f158a508] (0+4/8) Accurately ripped
 03     [b093bbe4|10cb6cfc] (0+4/8) Accurately ripped
 04     [149a3158|d770d563] (0+4/8) Accurately ripped
 05     [d6d587c5|550dd9a9] (0+4/8) Accurately ripped
 06     [ea5ee224|5676804a] (0+4/8) Accurately ripped
 07     [d5dcc2cf|be2addd7] (0+4/8) Accurately ripped
 08     [65cc4842|f587e35c] (0+4/8) Accurately ripped
 09     [ec4d9c61|587a11a0] (0+4/7) Accurately ripped
 10     [53dd8dad|205948f5] (0+4/7) Accurately ripped
 11     [07371526|76c2d309] (0+4/7) Accurately ripped
 12     [ad755f00|fc6b16a9] (0+4/7) Accurately ripped
 13     [2d30324a|3e475028] (0+4/7) Accurately ripped
Offsetted by -6:
 01     [da6e739f] (0/8) No match (V2 was not tested)
 02     [d0c2490a] (0/8) No match (V2 was not tested)
 03     [dd93b562] (0/8) No match (V2 was not tested)
 04     [e8ee0aa4] (0/8) No match (V2 was not tested)
 05     [6b5ddb4b] (0/8) No match (V2 was not tested)
 06     [ae8f07ba] (0/8) No match (V2 was not tested)
 07     [c5e16633] (0/8) No match (V2 was not tested)
 08     [960c7e28] (0/8) No match (V2 was not tested)
 09     [a52a187d] (0/7) No match (V2 was not tested)
 10     [a27191bb] (0/7) No match (V2 was not tested)
 11     [afdeacc8] (0/7) No match (V2 was not tested)
 12     [bf9d8e72] (0/7) No match (V2 was not tested)
 13     [393bf0a4] (0/7) No match (V2 was not tested)
Track Peak [ CRC32  ] [W/O NULL] [  LOG   ]
 --   99,9 [717D8BF3] [99B66F33]   CRC32
 01   97,9 [17DF2F94] [2F4E1E60]
 02   97,9 [1134FF7A] [C7034C87]
 03   97,9 [36D4B3F8] [70C0FBFC]
 04   97,9 [AF21EE39] [799EAAF5]
 05   97,9 [9E73332D] [88803CB5]
 06   97,9 [A53F1F54] [9593D598]
 07   97,9 [409983C3] [AD5451AF]
 08   97,9 [F4CDE3D5] [C7914F2B]
 09   95,1 [5634F70A] [3FF49807]
 10   92,8 [59CA25AE] [F7584E4C]
 11   97,9 [954C3E88] [6690D5E4]
 12   87,8 [FBC9D289] [0CF39D11]
 13   99,9 [02D7D80E] [376FBC70]
 
CD2 {77:23}

Us Three (1960) cont.
01. Walkin' [7:07]
02. Return Engagement [4:48]
Speakin' My Piece (1960)
03. Wadin' [6:10]
04. Up in Cynthia's Room [6:20]
05. Borderline [6:11]
06. Rastus [6:54]
07. Oh So Blue [7:40]
08. Speakin' My Piece [6:04]
Headin' South (1961)
09. Headin' South [4:29]
10. The Song Is Ended [5:54]
11. Summertime [6:00]
12. Low Down [5:30]
13. Congalegre [4:23]

 
Лог создания рипа
Exact Audio Copy V1.0 beta 3 from 29. August 2011
EAC extraction logfile from 22. July 2017, 14:37
Horace Parlan / CD2 - Us Three & Speaking My Piece & Headin' South
Used drive  : TSSTcorpCDDVDW SH-224FB   Adapter: 1  ID: 0
Read mode               : Secure
Utilize accurate stream : Yes
Defeat audio cache      : Yes
Make use of C2 pointers : No
Read offset correction                      : 6
Overread into Lead-In and Lead-Out          : No
Fill up missing offset samples with silence : Yes
Delete leading and trailing silent blocks   : No
Null samples used in CRC calculations       : Yes
Used interface                              : Native Win32 interface for Win NT & 2000
Used output format              : User Defined Encoder
Selected bitrate                : 128 kBit/s
Quality                         : High
Add ID3 tag                     : No
Command line compressor         : C:\Program Files (x86)\Exact Audio Copy\Flac\flac.exe
Additional command line options : -V -8 -T "Genre=%genre%" -T "Artist=%artist%" -T "Title=%title%" -T "Album=%albumtitle%" -T "Date=%year%" -T "Tracknumber=%tracknr%" -T "Comment=%comment%" %source%
TOC of the extracted CD
     Track |   Start  |  Length  | Start sector | End sector
    ---------------------------------------------------------
        1  |  0:00.00 |  7:06.08 |         0    |    31957
        2  |  7:06.08 |  4:48.00 |     31958    |    53557
        3  | 11:54.08 |  6:09.14 |     53558    |    81246
        4  | 18:03.22 |  6:19.48 |     81247    |   109719
        5  | 24:22.70 |  6:10.37 |    109720    |   137506
        6  | 30:33.32 |  6:53.26 |    137507    |   168507
        7  | 37:26.58 |  7:39.25 |    168508    |   202957
        8  | 45:06.08 |  6:03.74 |    202958    |   230256
        9  | 51:10.07 |  4:28.03 |    230257    |   250359
       10  | 55:38.10 |  5:53.55 |    250360    |   276889
       11  | 61:31.65 |  5:59.69 |    276890    |   303883
       12  | 67:31.59 |  5:29.06 |    303884    |   328564
       13  | 73:00.65 |  4:22.37 |    328565    |   348251
Range status and errors
Selected range
     Filename D:\Download\Horace Parlan - Seven Classic Albums (4CD, 2012)\CD2 - Us Three & Speakin' My Piece & Headin' South\Horace Parlan - CD2 - Us Three & Speaking My Piece & Headin' South.wav
     Peak level 100.0 %
     Extraction speed 3.4 X
     Range quality 99.9 %
     Test CRC 8F08CF6E
     Copy CRC 8F08CF6E
     Copy OK
No errors occurred
AccurateRip summary
Track  1  accurately ripped (confidence 3)  [5AB05717]  (AR v2)
Track  2  accurately ripped (confidence 3)  [9C292BD7]  (AR v2)
Track  3  accurately ripped (confidence 3)  [7B11ABD7]  (AR v2)
Track  4  accurately ripped (confidence 3)  [1684AFDD]  (AR v2)
Track  5  accurately ripped (confidence 3)  [0BB9C30C]  (AR v2)
Track  6  accurately ripped (confidence 3)  [4173138A]  (AR v2)
Track  7  accurately ripped (confidence 3)  [B1BFD021]  (AR v2)
Track  8  accurately ripped (confidence 3)  [6C1A614F]  (AR v2)
Track  9  accurately ripped (confidence 3)  [2866BA61]  (AR v2)
Track 10  accurately ripped (confidence 3)  [4EA89605]  (AR v2)
Track 11  accurately ripped (confidence 3)  [9CB3F9DC]  (AR v2)
Track 12  accurately ripped (confidence 3)  [2BAC5468]  (AR v2)
Track 13  accurately ripped (confidence 3)  [3E6A1646]  (AR v2)
All tracks accurately ripped
End of status report
==== Log checksum EA2A7BD730F994FA8719B1DD3FDB402098C7CB34F498AB2BEB834EBE0E661472 ====
 
Содержание индексной карты (.CUE)
REM GENRE Jazz
REM DATE 2012
REM DISCID B512230D
REM COMMENT "ExactAudioCopy v1.0b3"
PERFORMER "Horace Parlan"
TITLE "Seven Classic Albums CD2"
FILE "Horace Parlan - Seven Classic Albums CD2.wav" WAVE
  TRACK 01 AUDIO
    TITLE "Walkin'"
    PERFORMER "Horace Parlan"
    INDEX 01 00:00:00
  TRACK 02 AUDIO
    TITLE "Return Engagement"
    PERFORMER "Horace Parlan"
    INDEX 01 07:06:08
  TRACK 03 AUDIO
    TITLE "Wadin'"
    PERFORMER "Horace Parlan"
    INDEX 01 11:54:08
  TRACK 04 AUDIO
    TITLE "Up in Cynthia's Room"
    PERFORMER "Horace Parlan"
    INDEX 01 18:03:22
  TRACK 05 AUDIO
    TITLE "Borderline"
    PERFORMER "Horace Parlan"
    INDEX 01 24:22:70
  TRACK 06 AUDIO
    TITLE "Rastus"
    PERFORMER "Horace Parlan"
    INDEX 01 30:33:32
  TRACK 07 AUDIO
    TITLE "Oh So Blue"
    PERFORMER "Horace Parlan"
    INDEX 01 37:26:58
  TRACK 08 AUDIO
    TITLE "Speakin' My Piece"
    PERFORMER "Horace Parlan"
    INDEX 01 45:06:08
  TRACK 09 AUDIO
    TITLE "Headin' South"
    PERFORMER "Horace Parlan"
    INDEX 01 51:10:07
  TRACK 10 AUDIO
    TITLE "The Song Is Ended"
    PERFORMER "Horace Parlan"
    INDEX 01 55:38:10
  TRACK 11 AUDIO
    TITLE "Summertime"
    PERFORMER "Horace Parlan"
    INDEX 01 61:31:65
  TRACK 12 AUDIO
    TITLE "Low Down"
    PERFORMER "Horace Parlan"
    INDEX 01 67:31:59
  TRACK 13 AUDIO
    TITLE "Congalegre"
    PERFORMER "Horace Parlan"
    INDEX 01 73:00:65
 
Отчет CUETools
[CUETools log; Date: 05.11.2018 22:15:51; Version: 2.1.5]
[CTDB TOCID: _I0kz5XeTxlwdNy_w0BtmrSrKTo-] found.
Track | CTDB Status
  1   | (10/10) Accurately ripped
  2   | (10/10) Accurately ripped
  3   | (10/10) Accurately ripped
  4   | (10/10) Accurately ripped
  5   | (10/10) Accurately ripped
  6   | (10/10) Accurately ripped
  7   | (10/10) Accurately ripped
  8   | (10/10) Accurately ripped
  9   | (10/10) Accurately ripped
 10   | (10/10) Accurately ripped
 11   | (10/10) Accurately ripped
 12   | (10/10) Accurately ripped
 13   | (10/10) Accurately ripped
[AccurateRip ID: 00268210-017fa179-b512230d] found.
Track   [  CRC   |   V2   ] Status
 01     [54c00ac7|5ab05717] (0+4/7) Accurately ripped
 02     [1d9c10a2|9c292bd7] (0+4/7) Accurately ripped
 03     [84e15e31|7b11abd7] (0+4/8) Accurately ripped
 04     [b3b6154e|1684afdd] (0+4/8) Accurately ripped
 05     [17d07ae8|0bb9c30c] (0+4/8) Accurately ripped
 06     [34950e00|4173138a] (0+4/8) Accurately ripped
 07     [7c7cd9a8|b1bfd021] (0+4/8) Accurately ripped
 08     [f92c577b|6c1a614f] (0+4/8) Accurately ripped
 09     [897837f8|2866ba61] (0+4/8) Accurately ripped
 10     [b8c72c05|4ea89605] (0+4/8) Accurately ripped
 11     [bf808f08|9cb3f9dc] (0+4/8) Accurately ripped
 12     [601fa01d|2bac5468] (0+4/8) Accurately ripped
 13     [57b21af4|3e6a1646] (0+4/8) Accurately ripped
Offsetted by -6:
 01     [2dc4a603] (0/7) No match (V2 was not tested)
 02     [d3cac7e4] (0/7) No match (V2 was not tested)
 03     [e9c74165] (0/8) No match (V2 was not tested)
 04     [da29b7fc] (0/8) No match (V2 was not tested)
 05     [6e5988ea] (0/8) No match (V2 was not tested)
 06     [27cfccf4] (0/8) No match (V2 was not tested)
 07     [f85e2930] (0/8) No match (V2 was not tested)
 08     [2b201d7f] (0/8) No match (V2 was not tested)
 09     [45bcc508] (0/8) No match (V2 was not tested)
 10     [30aca3ff] (0/8) No match (V2 was not tested)
 11     [803849a6] (0/8) No match (V2 was not tested)
 12     [62a27bc3] (0/8) No match (V2 was not tested)
 13     [83194ef0] (0/8) No match (V2 was not tested)
Track Peak [ CRC32  ] [W/O NULL] [  LOG   ]
 --  100,0 [8F08CF6E] [D412C0B3]   CRC32
 01   90,2 [911B9EF9] [11CDBA69]
 02   92,8 [49B26FEA] [00422D64]
 03   83,4 [2EEAD30F] [F4BF239E]
 04   99,0 [DD7C0EC5] [5FABAFBE]
 05   91,6 [2F1EE328] [50765698]
 06   91,1 [E5F6D034] [C933E4BC]
 07   90,0 [6DD51976] [941B0D55]
 08  100,0 [B360E54D] [45B957FF]
 09   94,6 [B973CFD5] [9DF14E47]
 10   95,8 [15A485F8] [2C9558E6]
 11   97,9 [43F7758E] [022CDE23]
 12   96,4 [E93FD2FA] [18CB9637]
 13   97,9 [583BEF53] [89C35E15]
 
CD3 {73:49}

Headin' South (1961) cont.
01. Prelude to a Kiss [5:29]
02. Jim Loves Sue [4:33]
03. My Mother's Eyes [5:22]
On the Spur of the Moment (1961)
04. On the Spur of the Moment [5:56]
05. Skoo Chee [10:59]
06. And That I Am So in Love [5:07]
07. Al's Tune [7:03]
08. Ray C [6:57]
09. Pyramid [6:29]
Up and Down (1961)
10. The Books Beat [9:50]
11. Up and Down [6:11]

 
Лог создания рипа
Exact Audio Copy V1.0 beta 3 from 29. August 2011
EAC extraction logfile from 22. July 2017, 15:28
Horace Parlan / CD3 - Headin' South & On The Spur Of The Moment & Up And Down
Used drive  : TSSTcorpCDDVDW SH-224FB   Adapter: 1  ID: 0
Read mode               : Secure
Utilize accurate stream : Yes
Defeat audio cache      : Yes
Make use of C2 pointers : No
Read offset correction                      : 6
Overread into Lead-In and Lead-Out          : No
Fill up missing offset samples with silence : Yes
Delete leading and trailing silent blocks   : No
Null samples used in CRC calculations       : Yes
Used interface                              : Native Win32 interface for Win NT & 2000
Used output format              : User Defined Encoder
Selected bitrate                : 128 kBit/s
Quality                         : High
Add ID3 tag                     : No
Command line compressor         : C:\Program Files (x86)\Exact Audio Copy\Flac\flac.exe
Additional command line options : -V -8 -T "Genre=%genre%" -T "Artist=%artist%" -T "Title=%title%" -T "Album=%albumtitle%" -T "Date=%year%" -T "Tracknumber=%tracknr%" -T "Comment=%comment%" %source%
TOC of the extracted CD
     Track |   Start  |  Length  | Start sector | End sector
    ---------------------------------------------------------
        1  |  0:00.00 |  5:28.25 |         0    |    24624
        2  |  5:28.25 |  4:32.48 |     24625    |    45072
        3  | 10:00.73 |  5:21.07 |     45073    |    69154
        4  | 15:22.05 |  5:55.27 |     69155    |    95806
        5  | 21:17.32 | 10:58.18 |     95807    |   145174
        6  | 32:15.50 |  5:06.04 |    145175    |   168128
        7  | 37:21.54 |  7:02.67 |    168129    |   199845
        8  | 44:24.46 |  6:56.73 |    199846    |   231118
        9  | 51:21.44 |  6:28.01 |    231119    |   260219
       10  | 57:49.45 |  9:49.40 |    260220    |   304434
       11  | 67:39.10 |  6:10.09 |    304435    |   332193
Range status and errors
Selected range
     Filename D:\Download\Horace Parlan - Seven Classic Albums (4CD, 2012)\CD3 - Headin' South & On The Spur Of The Moment & Up And Down\Horace Parlan - CD3 - Headin' South & On The Spur Of The Moment & Up And Down.wav
     Peak level 100.0 %
     Extraction speed 3.4 X
     Range quality 99.9 %
     Test CRC 0794B47C
     Copy CRC 0794B47C
     Copy OK
No errors occurred
AccurateRip summary
Track  1  accurately ripped (confidence 3)  [1D19A5AF]  (AR v2)
Track  2  accurately ripped (confidence 3)  [584639CC]  (AR v2)
Track  3  accurately ripped (confidence 3)  [8312E131]  (AR v2)
Track  4  accurately ripped (confidence 3)  [CA6C695F]  (AR v2)
Track  5  accurately ripped (confidence 3)  [B364A0AC]  (AR v2)
Track  6  accurately ripped (confidence 3)  [1981D2B9]  (AR v2)
Track  7  accurately ripped (confidence 3)  [189C404A]  (AR v2)
Track  8  accurately ripped (confidence 3)  [109876E4]  (AR v2)
Track  9  accurately ripped (confidence 3)  [7FF69142]  (AR v2)
Track 10  accurately ripped (confidence 2)  [6DB1D2A9]  (AR v2)
Track 11  accurately ripped (confidence 2)  [1DC5BB55]  (AR v2)
All tracks accurately ripped
End of status report
==== Log checksum 6BBC6D9A6B039C57FB370255456169225211BA7AA74BB9F95D0A3284CC102EC7 ====
 
Содержание индексной карты (.CUE)
REM GENRE Jazz
REM DATE 2012
REM DISCID 8D114D0B
REM COMMENT "ExactAudioCopy v1.0b3"
PERFORMER "Horace Parlan"
TITLE "Seven Classic Albums CD3"
FILE "Horace Parlan - Seven Classic Albums CD3.wav" WAVE
  TRACK 01 AUDIO
    TITLE "Prelude to a Kiss"
    PERFORMER "Horace Parlan"
    INDEX 01 00:00:00
  TRACK 02 AUDIO
    TITLE "Jim Loves Sue"
    PERFORMER "Horace Parlan"
    INDEX 01 05:28:25
  TRACK 03 AUDIO
    TITLE "My Mother's Eyes"
    PERFORMER "Horace Parlan"
    INDEX 01 10:00:73
  TRACK 04 AUDIO
    TITLE "On the Spur of the Moment"
    PERFORMER "Horace Parlan"
    INDEX 01 15:22:05
  TRACK 05 AUDIO
    TITLE "Skoo Chee"
    PERFORMER "Horace Parlan"
    INDEX 01 21:17:32
  TRACK 06 AUDIO
    TITLE "And That I Am So in Love"
    PERFORMER "Horace Parlan"
    INDEX 01 32:15:50
  TRACK 07 AUDIO
    TITLE "Al's Tune"
    PERFORMER "Horace Parlan"
    INDEX 01 37:21:54
  TRACK 08 AUDIO
    TITLE "Ray C"
    PERFORMER "Horace Parlan"
    INDEX 01 44:24:46
  TRACK 09 AUDIO
    TITLE "Pyramid"
    PERFORMER "Horace Parlan"
    INDEX 01 51:21:44
  TRACK 10 AUDIO
    TITLE "The Books Beat"
    PERFORMER "Horace Parlan"
    INDEX 01 57:49:45
  TRACK 11 AUDIO
    TITLE "Up and Down"
    PERFORMER "Horace Parlan"
    INDEX 01 67:39:10
 
Отчет CUETools
[CUETools log; Date: 05.11.2018 22:15:58; Version: 2.1.5]
[CTDB TOCID: TVv9WESAAq54UHRJK7BYVm.Iywo-] found.
Track | CTDB Status
  1   | (12/12) Accurately ripped
  2   | (12/12) Accurately ripped
  3   | (12/12) Accurately ripped
  4   | (12/12) Accurately ripped
  5   | (12/12) Accurately ripped
  6   | (12/12) Accurately ripped
  7   | (12/12) Accurately ripped
  8   | (12/12) Accurately ripped
  9   | (12/12) Accurately ripped
 10   | ( 9/12) Accurately ripped, or (3/12) differs in 2522 samples @00:00:17-00:00:19
 11   | (12/12) Accurately ripped
[AccurateRip ID: 001c9f42-00fd5c46-8d114d0b] found.
Track   [  CRC   |   V2   ] Status
 01     [a7750de9|1d19a5af] (0+4/8) Accurately ripped
 02     [5fdb8f5e|584639cc] (0+4/8) Accurately ripped
 03     [3eb1af83|8312e131] (0+4/8) Accurately ripped
 04     [04039095|ca6c695f] (0+4/8) Accurately ripped
 05     [5cf688e2|b364a0ac] (0+4/8) Accurately ripped
 06     [55d38ac5|1981d2b9] (0+4/8) Accurately ripped
 07     [c544fb00|189c404a] (0+4/8) Accurately ripped
 08     [069047d7|109876e4] (0+4/8) Accurately ripped
 09     [11d30c4d|7ff69142] (0+4/8) Accurately ripped
 10     [3c625979|6db1d2a9] (0+3/7) Accurately ripped
 11     [e2645ae3|1dc5bb55] (0+3/7) Accurately ripped
Offsetted by -6:
 01     [53c5c5db] (0/8) No match (V2 was not tested)
 02     [4935580e] (0/8) No match (V2 was not tested)
 03     [feb69197] (0/8) No match (V2 was not tested)
 04     [dd6a333d] (0/8) No match (V2 was not tested)
 05     [975c2284] (0/8) No match (V2 was not tested)
 06     [8ff0c4b5] (0/8) No match (V2 was not tested)
 07     [d24edb24] (0/8) No match (V2 was not tested)
 08     [759b30b1] (0/8) No match (V2 was not tested)
 09     [8f441461] (0/8) No match (V2 was not tested)
 10     [660eb483] (0/7) No match (V2 was not tested)
 11     [2337d3db] (0/7) No match (V2 was not tested)
Track Peak [ CRC32  ] [W/O NULL] [  LOG   ]
 --  100,0 [0794B47C] [926527F1]   CRC32
 01   94,1 [D90A501A] [7381F3ED]
 02  100,0 [D98ED663] [A725F6BD]
 03   96,2 [4198A10D] [31C341CB]
 04  100,0 [BD71B144] [AD698B46]
 05   97,9 [B724B45C] [3545F2DF]
 06   97,9 [720D6E35] [AD7BFD4F]
 07  100,0 [013772F9] [629E7545]
 08   97,9 [188B67A6] [F88089FE]
 09   97,9 [3AE50C25] [7DF75833]
 10   90,5 [59DC3B75] [FC1EEC04]
 11   99,9 [6D3FF046] [35E8DDCF]
 
CD4 {70:06}

Up and Down (1961) cont.
01. Fugee [7:09]
02. The Other Part of Town [11:42]
03. Lonely One [4:07]
04. Light Blue [6:03]
Doin' Alright (with Dexter Gordon) (1961)
05. I Was Doing All Right [9:19]
06. You've Changed [7:29]
07. For Regulars Only [5:46]
08. Society Red [12:22]
09. It's You or No One [6:13]

 
Лог создания рипа
Exact Audio Copy V1.0 beta 3 from 29. August 2011
EAC extraction logfile from 23. July 2017, 21:21
Horace Parlan / CD4 - Up And Down & Doin' Alright
Used drive  : TSSTcorpCDDVDW SH-224FB   Adapter: 1  ID: 0
Read mode               : Secure
Utilize accurate stream : Yes
Defeat audio cache      : Yes
Make use of C2 pointers : No
Read offset correction                      : 6
Overread into Lead-In and Lead-Out          : No
Fill up missing offset samples with silence : Yes
Delete leading and trailing silent blocks   : No
Null samples used in CRC calculations       : Yes
Used interface                              : Native Win32 interface for Win NT & 2000
Used output format              : User Defined Encoder
Selected bitrate                : 128 kBit/s
Quality                         : High
Add ID3 tag                     : No
Command line compressor         : C:\Program Files (x86)\Exact Audio Copy\Flac\flac.exe
Additional command line options : -V -8 -T "Genre=%genre%" -T "Artist=%artist%" -T "Title=%title%" -T "Album=%albumtitle%" -T "Date=%year%" -T "Tracknumber=%tracknr%" -T "Comment=%comment%" %source%
TOC of the extracted CD
     Track |   Start  |  Length  | Start sector | End sector
    ---------------------------------------------------------
        1  |  0:00.00 |  7:08.11 |         0    |    32110
        2  |  7:08.11 | 11:41.68 |     32111    |    84753
        3  | 18:50.04 |  4:06.51 |     84754    |   103254
        4  | 22:56.55 |  6:02.17 |    103255    |   130421
        5  | 28:58.72 |  9:18.64 |    130422    |   172335
        6  | 38:17.61 |  7:28.28 |    172336    |   205963
        7  | 45:46.14 |  5:45.44 |    205964    |   231882
        8  | 51:31.58 | 12:21.60 |    231883    |   287517
        9  | 63:53.43 |  6:12.47 |    287518    |   315464
Range status and errors
Selected range
     Filename D:\Download\Horace Parlan - Seven Classic Albums (4CD, 2012)\CD4 - Up And Down & Doin' Alright\Horace Parlan - CD4 - Up And Down & Doin' Alright.wav
     Peak level 99.1 %
     Extraction speed 3.4 X
     Range quality 100.0 %
     Test CRC EC62A2FD
     Copy CRC EC62A2FD
     Copy OK
No errors occurred
AccurateRip summary
Track  1  accurately ripped (confidence 2)  [860DFD49]  (AR v2)
Track  2  accurately ripped (confidence 2)  [86501606]  (AR v2)
Track  3  accurately ripped (confidence 2)  [A8A54F4F]  (AR v2)
Track  4  accurately ripped (confidence 2)  [DF4B9AB7]  (AR v2)
Track  5  accurately ripped (confidence 3)  [A1D195A3]  (AR v2)
Track  6  accurately ripped (confidence 3)  [FBD813A3]  (AR v2)
Track  7  accurately ripped (confidence 3)  [DF9A6BDF]  (AR v2)
Track  8  accurately ripped (confidence 3)  [8750C474]  (AR v2)
Track  9  accurately ripped (confidence 3)  [F8B66203]  (AR v2)
All tracks accurately ripped
End of status report
==== Log checksum 6FFA96BE9418C55FF4D885C59AA49324D94EA46B2FEC4D7DE5E25A8199233C51 ====
 
Содержание индексной карты (.CUE)
REM GENRE Jazz
REM DATE 2012
REM DISCID 7C106E09
REM COMMENT "ExactAudioCopy v1.0b3"
PERFORMER "Horace Parlan"
TITLE "Seven Classic Albums CD4"
FILE "Horace Parlan - Seven Classic Albums CD4.wav" WAVE
  TRACK 01 AUDIO
    TITLE "Fugee"
    PERFORMER "Horace Parlan"
    INDEX 01 00:00:00
  TRACK 02 AUDIO
    TITLE "The Other Part of Town"
    PERFORMER "Horace Parlan"
    INDEX 01 07:08:11
  TRACK 03 AUDIO
    TITLE "Lonely One"
    PERFORMER "Horace Parlan"
    INDEX 01 18:50:04
  TRACK 04 AUDIO
    TITLE "Light Blue"
    PERFORMER "Horace Parlan"
    INDEX 01 22:56:55
  TRACK 05 AUDIO
    TITLE "I Was Doing All Right"
    PERFORMER "Horace Parlan"
    INDEX 01 28:58:72
  TRACK 06 AUDIO
    TITLE "You've Changed"
    PERFORMER "Horace Parlan"
    INDEX 01 38:17:61
  TRACK 07 AUDIO
    TITLE "For Regulars Only"
    PERFORMER "Horace Parlan"
    INDEX 01 45:46:14
  TRACK 08 AUDIO
    TITLE "Society Red"
    PERFORMER "Horace Parlan"
    INDEX 01 51:31:58
  TRACK 09 AUDIO
    TITLE "It's You or No One"
    PERFORMER "Horace Parlan"
    INDEX 01 63:53:43
 
Отчет CUETools
[CUETools log; Date: 05.11.2018 22:16:05; Version: 2.1.5]
[CTDB TOCID: 0YcOPdK.rCxMjDqU7RkMhmC9rZA-] found.
Track | CTDB Status
  1   | (11/11) Accurately ripped
  2   | (11/11) Accurately ripped
  3   | (11/11) Accurately ripped
  4   | (10/11) Accurately ripped
  5   | (11/11) Accurately ripped
  6   | (11/11) Accurately ripped
  7   | (11/11) Accurately ripped
  8   | (10/11) Accurately ripped
  9   | (11/11) Accurately ripped
[AccurateRip ID: 0017dc3c-00aed0f3-7c106e09] found.
Track   [  CRC   |   V2   ] Status
 01     [8f030bbc|860dfd49] (0+3/7) Accurately ripped
 02     [5ce4773a|86501606] (0+3/7) Accurately ripped
 03     [b780c6e5|a8a54f4f] (0+3/7) Accurately ripped
 04     [c5604e5c|df4b9ab7] (0+3/7) Accurately ripped
 05     [27ae568c|a1d195a3] (0+4/7) Accurately ripped
 06     [cab061ef|fbd813a3] (0+4/7) Accurately ripped
 07     [41da1366|df9a6bdf] (0+4/7) Accurately ripped
 08     [6e3f0bde|8750c474] (0+4/7) Accurately ripped
 09     [faf8d16b|f8b66203] (0+4/7) Accurately ripped
Offsetted by -6:
 01     [024f1c68] (0/7) No match (V2 was not tested)
 02     [b29c221c] (0/7) No match (V2 was not tested)
 03     [52bd57d3] (0/7) No match (V2 was not tested)
 04     [f42fe79e] (0/7) No match (V2 was not tested)
 05     [7ec514a4] (0/7) No match (V2 was not tested)
 06     [7e4df8e3] (0/7) No match (V2 was not tested)
 07     [068d8c6e] (0/7) No match (V2 was not tested)
 08     [e6c4f78e] (0/7) No match (V2 was not tested)
 09     [158736db] (0/7) No match (V2 was not tested)
Track Peak [ CRC32  ] [W/O NULL] [  LOG   ]
 --   99,1 [EC62A2FD] [59DBB325]   CRC32
 01   98,9 [7BF6F127] [D53D24E4]
 02   96,3 [003AB7BF] [FB5D5574]
 03   94,1 [CC22B2A4] [C41BFFE1]
 04   86,5 [F8FFF7A9] [4F723611]
 05   99,1 [4DB854F6] [A14EB8FB]
 06   86,4 [5B6E6B13] [9FC480D2]
 07   97,9 [1DD1D6DA] [9111E73A]
 08   97,9 [6FD24ABF] [4F213DF6]
 09   97,9 [14BB45A4] [0D2E1C11]
Приватный:
Нет (DHT включён)
Размер:
1.71 Гб (1,835,703,455 байт) » файлов: 29
Участники:
4 раздают, 0 качают (4 участников всего)
Внешние участники:
2 раздают, 1 качают (3 участников всего) [ Обновить ]
13:05
30
Нет комментариев. Ваш будет первым!