Поиск

1958 John Coltrane - Soultrane (2021) {Prestige} [24-192]

1958 John Coltrane - Soultrane (2021) {Prestige} [24-192]
Стили:
Дата переиздания диска:
22 июня 2021
Издатель (лейбл):
Битрейт аудио:
lossless

Состав:
Лог проверки качества
foobar2000 1.4.6 / Dynamic Range Meter 1.1.1
log date: 2021-07-26 19:00:15
--------------------------------------------------------------------------------
Analyzed: John Coltrane / Soultrane
--------------------------------------------------------------------------------
DR         Peak         RMS     Duration Track
--------------------------------------------------------------------------------
DR11      -0.10 dB   -13.07 dB     12:11 01-Good Bait
DR11      -0.10 dB   -13.98 dB     10:59 02-I Want To Talk About You
DR11      -0.10 dB   -12.81 dB      6:18 03-You Say You Care
DR12      -0.10 dB   -14.00 dB      4:59 04-Theme For Ernie
DR11      -0.10 dB   -12.61 dB      5:35 05-Russian Lullaby
--------------------------------------------------------------------------------
Number of tracks:  5
Official DR value: DR11
Samplerate:        192000 Hz
Channels:          2
Bits per sample:   24
Bitrate:           3192 kbps
Codec:             FLAC
================================================================================
Приватный:
Нет (DHT включён)
Размер:
904.93 Мб (948,884,209 байт) » файлов: 10
Участники:
0 раздают, 0 качают (0 участников всего)
Внешние участники:
5 раздают, 2 качают (7 участников всего) [ Обновить ]
15:23
323
Нет комментариев. Ваш будет первым!