Вы используете незарегистрированную версию компонента "Вкладки"!

Поиск

1958 Harry Arnold And Quincy Jones - Harry Arnold + Quincy Jones = Jazz! (2019) [24-44,1]

1958 Harry Arnold And Quincy Jones - Harry Arnold + Quincy Jones = Jazz! (2019) [24-44,1]
Стили:
Дата записи диска:
10 ноября 1953 - 19 ноября 1958
Место записи:
Stockholm, Sweden
Издатель (лейбл):
Номер по каталогу:
Mercury ‎– MG36139, EmArcy Jazz ‎– SJ-19619
Носитель:
WEB
Формат:
PCM
Тип рипа:
tracks+.cue
Контейнер:
FLAC (*.flac)
Количество каналов:
2.0
Разрядность/ЧД:
24/44,1
Битрейт аудио:
lossless
Время звучания:
00:36:41
Наличие сканов:
web
Релизёр (источник):
M0p94ok
Лог проверки качества
foobar2000 1.4.3 / Dynamic Range Meter 1.1.1
log date: 2020-05-10 10:54:46

--------------------------------------------------------------------------------
Analyzed: Harry Arnold And Quincy Jones / Harry Arnold + Quincy Jones = Jazz!
--------------------------------------------------------------------------------

DR         Peak         RMS     Duration Track
--------------------------------------------------------------------------------
DR14      -5.30 dB   -22.53 dB      2:31 01-Quincy's Home Again (Remastered)
DR11      -6.70 dB   -23.84 dB      4:06 02-Midnight Sun Never Sets (Remastered)
DR13      -4.89 dB   -21.08 dB      3:16 03-Cherokee (Remastered)
DR14      -5.89 dB   -24.44 dB      5:30 04-Count 'Em (Remastered)
DR13      -6.27 dB   -22.70 dB      3:04 05-Brief Encounter (Remastered)
DR13      -6.05 dB   -21.75 dB      3:14 06-Room (Remastered)
DR15      -4.87 dB   -25.33 dB      5:59 07-Kinda Blues (Remastered)
DR14      -3.81 dB   -21.92 dB      3:49 08-Meet Benny Bailey (Remastered)
DR16      -5.50 dB   -26.78 dB      5:12 09-Doodlin' (Remastered)
--------------------------------------------------------------------------------

Number of tracks:  9
Official DR value: DR14

Samplerate:        44100 Hz
Channels:          2
Bits per sample:   24
Bitrate:           1404 kbps
Codec:             FLAC
================================================================================
Any questions - support@pro-jazz.com. Есть вопросы - support@pro-jazz.com
11:16
289
Нет комментариев. Ваш будет первым!