Вы используете незарегистрированную версию компонента "Вкладки"!

Поиск

1958 Chet Baker - Sings: It Could Happen To You (2019) {RevOla} [24-44,1]

1958 Chet Baker - Sings: It Could Happen To You (2019) {RevOla} [24-44,1]
Дата записи диска:
август 1958
Место записи:
Reeves Sound Studios, New York, NY
Дата издания диска:
октябрь 1958
Издатель (лейбл):
Носитель:
WEB
Формат:
PCM
Тип рипа:
tracks+.cue
Контейнер:
FLAC (*.flac)
Количество каналов:
2.0
Разрядность/ЧД:
24/44,1
Время звучания:
01:11:22
Наличие сканов:
да
Релизёр (источник):
M0p94ok
Лог проверки качества
foobar2000 1.3.16 / Dynamic Range Meter 1.1.1
log date: 2019-01-05 18:24:27

--------------------------------------------------------------------------------
Analyzed: Chet Baker / Sings: It Could Happen To You
--------------------------------------------------------------------------------

DR         Peak         RMS     Duration Track
--------------------------------------------------------------------------------
DR10      -1.86 dB   -15.03 dB      3:05 01-Do It The Hard Way (Remastered)
DR9       -2.45 dB   -15.68 dB      5:07 02-I'm Old Fashioned (Remastered)
DR11      -2.15 dB   -15.23 dB      2:56 03-You're Driving Me Crazy (Remastered)
DR9       -2.29 dB   -13.61 dB      2:53 04-It Could Happen To You (Remastered)
DR12      -1.87 dB   -16.53 dB      3:29 05-My Heart Stood Still (Remastered)
DR10      -2.05 dB   -14.49 dB      3:06 06-The More I See You (Remastered)
DR12      -1.74 dB   -17.18 dB      5:05 07-Everything Happens To Me (Version #2 Remastered)
DR11      -2.36 dB   -16.08 dB      3:09 08-Dancing On The Ceiling (Remastered)
DR11      -1.89 dB   -15.64 dB      4:11 09-How Long Has This Been Going On? (Remastered)
DR10      -2.71 dB   -16.07 dB      3:00 10-Old Devil Moon (Remastered)
DR11      -2.80 dB   -17.48 dB      4:22 11-While My Lady Sleeps (Remastered)
DR10      -2.09 dB   -15.21 dB      3:41 12-You Make Me Feel So Young (Remastered)
DR9       -0.08 dB   -12.99 dB      4:35 13-Angel Eyes (Remastered)
DR8       -1.54 dB   -13.60 dB      3:37 14-When I Fall In Love (Remastered)
DR10      -0.37 dB   -12.86 dB      2:33 15-The Song Is You (Remastered)
DR9       -1.12 dB   -13.49 dB      4:34 16-Deep In A Dream (Remastered)
DR8       -0.20 dB   -12.02 dB      5:02 17-My Funny Valentine (Remastered)
DR9       -0.05 dB   -12.40 dB      2:44 18-Forgetful (Remastered)
DR7       -1.33 dB   -10.47 dB      4:23 19-Arrivederci (Remastered)
--------------------------------------------------------------------------------

Number of tracks:  19
Official DR value: DR10

Samplerate:        44100 Hz
Channels:          2
Bits per sample:   24
Bitrate:           1120 kbps
Codec:             FLAC
================================================================================
Any questions - support@pro-jazz.com. Есть вопросы - support@pro-jazz.com
11:52
272
Нет комментариев. Ваш будет первым!