Вы используете незарегистрированную версию компонента "Вкладки"!

Поиск

1959 Phil Moody Quintet - Intimate Jazz (2020) {Somerset} [24-96]

1959 Phil Moody Quintet - Intimate Jazz (2020) {Somerset} [24-96]
Стили:
Доп. инфо:

Формат записи/Источник записи: [TR24][OF]
Издание: Remastered
Год издания/переиздания диска: 1959/2020
Издатель (лейбл): Somerset
Продолжительность: 00:34:21
Наличие сканов в содержимом раздачи: Нет

Контейнер: FLAC (*.flac)
Тип рипа: tracks
Разрядность: 24/96
Количество каналов: 2.0

Источник (релизер): Qobuz

Лог проверки качества
foobar2000 1.4.3 / Dynamic Range Meter 1.1.1
log date: 2020-02-23 18:30:20

--------------------------------------------------------------------------------
Analyzed: Phil Moody Quintet / Intimate Jazz (Remastered from the Original Somerset Tapes)
--------------------------------------------------------------------------------

DR         Peak         RMS     Duration Track
--------------------------------------------------------------------------------
DR12      -0.50 dB   -17.93 dB      4:25 01-Body and Soul
DR11      -0.50 dB   -15.65 dB      3:11 02-I Only Have Eyes for You
DR14      -0.50 dB   -18.35 dB      2:30 03-Romeo Digs Juliet
DR10      -0.50 dB   -13.39 dB      4:02 04-All of Me
DR11      -0.50 dB   -14.93 dB      2:58 05-Two Sleepy People
DR12      -0.50 dB   -16.08 dB      4:11 06-Alone Together
DR12      -0.50 dB   -15.64 dB      2:33 07-Let's Fall in Love
DR13      -0.50 dB   -20.90 dB      3:55 08-The Way You Look Tonight
DR11      -0.50 dB   -16.43 dB      4:06 09-Rachmaninoff Sits In
DR11      -0.53 dB   -16.96 dB      2:34 10-You Do Something to Me
--------------------------------------------------------------------------------

Number of tracks:  10
Official DR value: DR12

Samplerate:        96000 Hz
Channels:          2
Bits per sample:   24
Bitrate:           2651 kbps
Codec:             FLAC
================================================================================
Any questions - support@pro-jazz.com. Есть вопросы - support@pro-jazz.com
09:58
289
Нет комментариев. Ваш будет первым!