Вы используете незарегистрированную версию компонента "Вкладки"!

Поиск

1958 Abbey Lincoln - It's Magic! (2019) {RevOla} [24-44,1]

1958 Abbey Lincoln - It's Magic! (2019) {RevOla} [24-44,1]
Стили:
Издатель (лейбл):
Битрейт аудио:
lossless
Доп. инфо:

Формат записи/Источник записи: [TR24][OF]
Издание: Remastered
Год издания/переиздания диска: 1958/2019
Издатель (лейбл): RevOla
Продолжительность: 00:36:29
Наличие сканов в содержимом раздачи: Нет

Контейнер: FLAC (*.flac)
Тип рипа: tracks
Разрядность: 24/44,1
Количество каналов: 2.0

Источник (релизер): Qobuz

Лог проверки качества
foobar2000 1.3.16 / Dynamic Range Meter 1.1.1
log date: 2019-04-07 15:41:09

--------------------------------------------------------------------------------
Analyzed: Abbey Lincoln / It's Magic!
--------------------------------------------------------------------------------

DR         Peak         RMS     Duration Track
--------------------------------------------------------------------------------
DR11      -6.56 dB   -21.62 dB      2:45 01-I Am In Love
DR15      -8.23 dB   -28.04 dB      4:01 02-It's Magic
DR13      -6.70 dB   -22.95 dB      3:32 03-Just For Me
DR13      -6.54 dB   -24.64 dB      3:20 04-An Occasional Man
DR12      -5.98 dB   -23.09 dB      4:26 05-Ain't Nobody's Business
DR13      -5.75 dB   -25.49 dB      4:43 06-Out Of The Past
DR11      -7.92 dB   -23.75 dB      3:15 07-Music, Maestro, Please
DR14      -7.64 dB   -23.80 dB      2:38 08-Love
DR12      -6.99 dB   -22.67 dB      2:52 09-Exactly Like You
DR14      -7.10 dB   -26.69 dB      5:03 10-Little Niles
--------------------------------------------------------------------------------

Number of tracks:  10
Official DR value: DR13

Samplerate:        44100 Hz
Channels:          2
Bits per sample:   24
Bitrate:           1129 kbps
Codec:             FLAC
================================================================================
Any questions - support@pro-jazz.com. Есть вопросы - support@pro-jazz.com
15:40
254
Нет комментариев. Ваш будет первым!