Поиск

1958 (1989) Julian Adderley Quintet - Portrait Of Cannonball

1958 (1989) Julian Adderley Quintet - Portrait Of Cannonball
Страна-производитель диска (релиза):
USA
Дата записи диска:
1 июля 1958
Дата издания диска:
1958
Дата переиздания диска:
1989
Издатель (лейбл):
Номер по каталогу:
OJCCD-361-2
Носитель:
CD
Битрейт аудио:
lossless
Аудиокодек:
FLAC (*.flac)
Тип рипа:
tracks
Время звучания:
58:27
Наличие сканов:
  • да
Треклист:

01. Minority (originally issued) (Gryce) 7:05
02. Minority (Take 2) (Gryce) 7:32
03. Minority (Take 3) (Gryce) 7:12
04. Straight Life (Adderley) 5:32
05. Blue Funk (Jones) 5:34
06. A Little Taste (Adderley) 4:40
07. People Will Say We're in Love (Hammerstein, Rodgers) 9:42
08. Nardis (Take 5) (Davis) 5:33
09. Nardis (Take 4) (Davis) 5:35

Состав:

Этот диск — дебют Adderley на Riverside (в действительности, записан вскоре после того, как Cannonball поучаствовал в записи майлзовских Milestones). Записан 1 июля 1958 года, оцифрован в 1989 году (Riverside OJC 361). Треки 2, 3 и 9 бонусные.
Лог создания рипа
EAC extraction logfile from 2. February 2007, 10:10 for CD
Julian Adderley Quintet / Portrait Of Cannonball
Used drive : PIONEER DVD-RW DVR-K16RS Adapter: 0 ID: 0
Read mode : Secure with NO C2, accurate stream, disable cache
Read offset correction : 48
Overread into Lead-In and Lead-Out : Yes
Used output format : Internal WAV Routines
44.100 Hz; 16 Bit; Stereo
Other options :
Fill up missing offset samples with silence : Yes
Delete leading and trailing silent blocks : No
Native Win32 interface for Win NT & 2000
Track 1
Filename C:\tmp\Out\Julian Adderley Quintet - Portrait Of Cannonball - 01 - Minority.wav
Pre-gap length 0:00:02.00
Peak level 64.2 %
Track quality 100.0 %
Test CRC 4532D329
Copy CRC 4532D329
Copy OK
Track 2
Filename C:\tmp\Out\Julian Adderley Quintet - Portrait Of Cannonball - 02 - Minority (Take 2).wav
Pre-gap length 0:00:01.70
Peak level 65.1 %
Track quality 100.0 %
Test CRC DCFFD361
Copy CRC DCFFD361
Copy OK
Track 3
Filename C:\tmp\Out\Julian Adderley Quintet - Portrait Of Cannonball - 03 - Minority (Take 3).wav
Pre-gap length 0:00:03.67
Peak level 71.1 %
Track quality 100.0 %
Test CRC EFD3AF19
Copy CRC EFD3AF19
Copy OK
Track 4
Filename C:\tmp\Out\Julian Adderley Quintet - Portrait Of Cannonball - 04 - Straight Life.wav
Pre-gap length 0:00:03.40
Peak level 49.0 %
Track quality 99.9 %
Test CRC 0AE06B60
Copy CRC 0AE06B60
Copy OK
Track 5
Filename C:\tmp\Out\Julian Adderley Quintet - Portrait Of Cannonball - 05 - Blue Funk.wav
Pre-gap length 0:00:03.70
Peak level 72.0 %
Track quality 100.0 %
Test CRC F139A9BC
Copy CRC F139A9BC
Copy OK
Track 6
Filename C:\tmp\Out\Julian Adderley Quintet - Portrait Of Cannonball - 06 - A Little Taste.wav
Pre-gap length 0:00:03.35
Peak level 70.1 %
Track quality 100.0 %
Test CRC 56911D0A
Copy CRC 56911D0A
Copy OK
Track 7
Filename C:\tmp\Out\Julian Adderley Quintet - Portrait Of Cannonball - 07 - People Will Say We're In Love.wav
Pre-gap length 0:00:04.15
Peak level 70.2 %
Track quality 100.0 %
Test CRC A997246C
Copy CRC A997246C
Copy OK
Track 8
Filename C:\tmp\Out\Julian Adderley Quintet - Portrait Of Cannonball - 08 - Nardis (Take 5).wav
Pre-gap length 0:00:04.20
Peak level 51.1 %
Track quality 100.0 %
Test CRC ECFD6ED0
Copy CRC ECFD6ED0
Copy OK
Track 9
Filename C:\tmp\Out\Julian Adderley Quintet - Portrait Of Cannonball - 09 - Nardis (Take 4).wav
Pre-gap length 0:00:03.10
Peak level 45.6 %
Track quality 100.0 %
Test CRC EE3EAC11
Copy CRC EE3EAC11
Copy OK
No errors occured
End of status report
Приватный:
Нет (DHT включён)
Размер:
263.16 Мб (275,941,496 байт) » файлов: 15
Участники:
0 раздают, 0 качают (0 участников всего)
Внешние участники:
3 раздают, 1 качают (4 участников всего) [ Обновить ]
21:45
118
RSS
Нет комментариев. Ваш будет первым!