Вы используете незарегистрированную версию компонента "Вкладки"!

Поиск

1957 Quincy Jones - This Is How I Feel About Jazz (2019) {RevOla} [24-44,1]

1957 Quincy Jones - This Is How I Feel About Jazz (2019) {RevOla} [24-44,1]
Дата записи диска:
14, 19, 29 сентября 1956
Место записи:
New York City, New York, USA
Издатель (лейбл):
Носитель:
WEB
Формат:
PCM
Тип рипа:
tracks+.cue
Битрейт аудио:
lossless
Лог проверки качества
foobar2000 1.3.16 / Dynamic Range Meter 1.1.1
log date: 2019-01-05 18:26:15

--------------------------------------------------------------------------------
Analyzed: Quincy Jones / This Is How I feel About Jazz
--------------------------------------------------------------------------------

DR         Peak         RMS     Duration Track
--------------------------------------------------------------------------------
DR12     -11.35 dB   -26.03 dB      5:18 01-Hagnes (Remastered)
DR14      -2.83 dB   -21.08 dB     10:30 02-Walkin' (Remastered)
DR13      -4.17 dB   -21.26 dB      5:36 03-Stockholm Sweetnin' (Remastered)
DR13      -6.72 dB   -22.89 dB      4:03 04-Evening In Paris (Remastered)
DR14      -4.17 dB   -22.41 dB      5:51 05-Sermonette (Remastered)
DR15      -3.72 dB   -21.50 dB      4:37 06-A Sleepin' Bee (Remastered)
DR13      -5.33 dB   -20.89 dB      5:05 07-Boo's Blues (Remastered)
--------------------------------------------------------------------------------

Number of tracks:  7
Official DR value: DR13

Samplerate:        44100 Hz
Channels:          2
Bits per sample:   24
Bitrate:           1099 kbps
Codec:             FLAC
================================================================================
Any questions - support@pro-jazz.com. Есть вопросы - support@pro-jazz.com
22:28
280
Нет комментариев. Ваш будет первым!