Вы используете незарегистрированную версию компонента "Вкладки"!

Поиск

1971 Doug Carn - Infant Eyes (2019) {Black Jazz} [24-96]

1971 Doug Carn - Infant Eyes (2019) {Black Jazz} [24-96]
Битрейт аудио:
lossless
Доп. инфо:

Формат записи/Источник записи: [TR24][OF]
Наличие водяных знаков: Нет
Издание: Remastered
Год издания/переиздания диска: 1971/2019
Издатель (лейбл): Black Jazz Records
Продолжительность: 41:59
Наличие сканов в содержимом раздачи: Только обложка альбома

Контейнер: FLAC (*.flac)
Тип рипа: tracks
Разрядность: 24/96
Формат: PCM
Количество каналов: 2.0

Источник: qobuz.com

Лог проверки качества
foobar2000 1.3.9 / Dynamic Range Meter 1.1.1
log date: 2020-03-14 07:48:48

--------------------------------------------------------------------------------
Analyzed: Doug Carn / Infant Eyes
--------------------------------------------------------------------------------

DR         Peak         RMS     Duration Track
--------------------------------------------------------------------------------
DR10      -4.54 dB   -18.98 dB      1:14 01-Welcome
DR13      -1.18 dB   -16.81 dB      3:50 02-Little B's Poem
DR13      -1.17 dB   -17.14 dB      7:39 03-Moon Child
DR13      -3.80 dB   -20.91 dB     10:04 04-Infant Eyes
DR13      -1.18 dB   -17.16 dB      5:56 05-Passion Dance
DR13      -1.17 dB   -16.87 dB      8:46 06-Acknowledgement
DR12      -1.18 dB   -17.17 dB      4:30 07-Peace
--------------------------------------------------------------------------------

Number of tracks:  7
Official DR value: DR13

Samplerate:        96000 Hz
Channels:          2
Bits per sample:   24
Bitrate:           2467 kbps
Codec:             FLAC
================================================================================
Any questions - support@pro-jazz.com. Есть вопросы - support@pro-jazz.com
21:31
254
Нет комментариев. Ваш будет первым!