Вы используете незарегистрированную версию компонента "Вкладки"!

Поиск

1957 Nat King Cole - This Is Nat King Cole (2020) {RevOla} [24-96]

1957 Nat King Cole - This Is Nat King Cole (2020) {RevOla} [24-96]
Стили:
Издатель (лейбл):
Доп. инфо:

• Формат записи | Источник записи: [TR24][OF]
• Наличие водяных знаков: Нет
• Год издания релиза: 2020 (1957)
• Лейбл: RevOla
• Продолжительность: 00:46:59
• Источник: internet
• WEB релиз: ссылка
• Контейнер: FLAC (*.flac)
• Тип рипа: tracks
• Разрядность: 24/96
• Формат: WAV (flac.ape.wv)
• Количество каналов: 2.0
• Наличие сканов: front

Лог проверки качества
foobar2000 1.3.9 / Замер динамического диапазона (DR) 1.1.1
Дата отчёта:  2020-02-05 08:50:22

--------------------------------------------------------------------------------
Анализ:   Nat King Cole / This Is Nat King Cole
--------------------------------------------------------------------------------

DR         Пики         RMS           Продолжительность трека
--------------------------------------------------------------------------------
DR14      -1.94 дБ   -18.61 дБ      2:59 01-Dreams Can Tell A Lie (Remastered)
DR11      -0.04 дБ   -13.62 дБ      2:47 02-I Just Found Out About Love (Remastered)
DR13      -0.69 дБ   -16.07 дБ      2:55 03-Too Young To Go Steady (Remastered)
DR11      -1.98 дБ   -15.59 дБ      3:02 04-Forgive My Heart (Remastered)
DR12      -2.63 дБ   -16.78 дБ      3:23 05-Annabelle (Remastered)
DR11      -2.37 дБ   -16.28 дБ      2:40 06-Nothing Ever Changes My Love For You (Remastered)
DR10      -0.09 дБ   -12.15 дБ      2:20 07-To The Ends Of The Earth (Remastered)
DR10      -0.53 дБ   -13.20 дБ      3:18 08-I'm Gonna Laugh You Right Out Of My Life (Remastered)
DR12      -0.48 дБ   -15.27 дБ      2:54 09-Someone You Love (Remastered)
DR12      -1.81 дБ   -15.96 дБ      2:36 10-Love Me As Though There Were No Tomorrow (Remastered)
DR12      -0.85 дБ   -15.23 дБ      3:00 11-That's All (Remastered)
DR12      -1.44 дБ   -15.83 дБ      2:58 12-Never Let Me Go (Remastered)
DR12      -0.12 дБ   -15.63 дБ      2:46 13-Small Towns Are Smile Towns (Remastered)
DR11       0.00 дБ   -13.66 дБ      3:21 14-Don't Hurt The Girl (Remastered)
DR11       0.00 дБ   -15.53 дБ      2:48 15-My Flaming Heart (Remastered)
DR11      -0.17 дБ   -14.23 дБ      3:17 16-United (Remastered)
--------------------------------------------------------------------------------

Количество треков: 16
Реальные значения DR: DR11

Частота:   96000 Гц
Каналов:   2
Разрядность:   24
Битрейт:   2475 кбит/с
Кодек:   FLAC
================================================================================
Any questions - support@pro-jazz.com. Есть вопросы - support@pro-jazz.com
15:35
303
Нет комментариев. Ваш будет первым!