Вы используете незарегистрированную версию компонента "Вкладки"!

Поиск

2020 Miles Davis - Music From and Inspired by The Film Birth Of The Cool {Columbia, Legacy} [24-48]

2020 Miles Davis - Music From and Inspired by The Film Birth Of The Cool {Columbia, Legacy} [24-48]
Стили:
Издатель (лейбл):
Доп. инфо:

Формат записи/Источник записи: [TR24][OF]
Наличие водяных знаков: Нет
Год издания: 2020
Продолжительность: 01:19:31
Наличие сканов в содержимом раздачи: Только обложка альбома
Контейнер: FLAC (*.flac)
Тип рипа: tracks
Разрядность: 24/48
Формат: PCM
Количество каналов: 2.0
Источник (релизер): qobuz.com

Лог проверки качества
foobar2000 1.4.8 / Dynamic Range Meter 1.1.1
log date: 2020-02-06 06:20:03

--------------------------------------------------------------------------------
Analyzed: Miles Davis / Music From and Inspired by The Film Birth Of The Cool (Remastered)
--------------------------------------------------------------------------------

DR         Peak         RMS     Duration Track
--------------------------------------------------------------------------------
DR14      -6.92 dB   -25.67 dB      0:23 01-Commentary: Herbie Hancock, Jimmy Heath
DR12      -4.25 dB   -18.11 dB      5:42 02-Milestones
DR13      -7.49 dB   -24.73 dB      0:20 03-Commentary: Greg Tate
DR12      -2.43 dB   -17.01 dB      2:32 04-Donna Lee
DR13      -6.08 dB   -23.27 dB      0:37 05-Commentary: Ashley Kahn, Symphony Sid Introduction
DR11      -1.87 dB   -16.64 dB      3:17 06-Moon Dreams
DR9       -7.91 dB   -19.53 dB      0:29 07-Commentary: George Wein
DR12      -2.23 dB   -16.81 dB      5:55 08-Round Midnight
DR11      -9.00 dB   -25.07 dB      0:20 09-Commentary: Carlos Santana
DR10      -4.83 dB   -17.67 dB      5:22 10-It Never Entered My Mind
DR15      -6.91 dB   -23.88 dB      0:45 11-Commentary: Vincent Bessieres
DR8       -3.71 dB   -16.90 dB      2:48 12-Générique (Mono Version)
DR11      -8.12 dB   -22.90 dB      0:21 13-Commentary: Jimmy Cobb
DR14      -0.20 dB   -19.06 dB      9:05 14-So What
DR13      -8.36 dB   -24.60 dB      0:12 15-Commentary: Gil Evans
DR16      -0.46 dB   -19.19 dB      4:35 16-New Rhumba
DR12      -8.73 dB   -24.37 dB      0:38 17-Commentary: Frances Taylor Davis
DR13      -0.97 dB   -17.33 dB      3:55 18-The Pan Piper
DR14      -7.17 dB   -24.46 dB      0:22 19-Commentary: Jack Chambers
DR11      -4.00 dB   -18.06 dB      9:03 20-Someday My Prince Will Come
DR11      -8.07 dB   -22.48 dB      0:35 21-Commentary: Wayne Shorter
DR13      -2.34 dB   -18.32 dB      9:46 22-Footprints
DR14      -5.89 dB   -23.01 dB      0:28 23-Commentary: Carlos Santana, Quincy Troupe
DR8       -4.50 dB   -15.03 dB      2:50 24-Miles Runs the Voodoo Down (45-rpm Single Edit)
DR14      -6.36 dB   -24.93 dB      0:18 25-Commentary: Marcus Miller
DR14      -0.48 dB   -17.16 dB      5:14 26-Tutu
DR14      -7.11 dB   -24.95 dB      0:14 27-Commentary: Erin Davis
DR9       -2.50 dB   -12.81 dB      3:40 28-Hail To The Real Chief
--------------------------------------------------------------------------------

Number of tracks:  28
Official DR value: DR12
Samplerate:        48000 Hz
Channels:          2
Bits per sample:   24
Bitrate:           1833 kbps
Codec:             FLAC
================================================================================
Any questions - support@pro-jazz.com. Есть вопросы - support@pro-jazz.com
18:13
328
Нет комментариев. Ваш будет первым!