Вы используете незарегистрированную версию компонента "Вкладки"!

Поиск

1976 Glenn Derringer - Plays Great American Music People {Ovation} [24-96]

1976 Glenn Derringer - Plays Great American Music People {Ovation} [24-96]
Стили:
Доп. инфо:

• Формат записи | Источник записи: [TR24][OF]
• Наличие водяных знаков: Нет
• Год издания релиза: 1976
• Жанр: Jazz
• Лейбл: Ovation Records
• Продолжительность: 00:31:56
• Источник: internet
• WEB релиз: ссылка
• Контейнер: FLAC (*.flac)
• Тип рипа: tracks
• Разрядность: 24/96
• Формат: WAV (flac.ape.wv)
• Количество каналов: 2.0
• Наличие сканов: front

Лог проверки качества
foobar2000 1.3.9 / Замер динамического диапазона (DR) 1.1.1
Дата отчёта:  2020-02-05 08:49:28

--------------------------------------------------------------------------------
Анализ:   Glenn Derringer / Plays Great American Music People
--------------------------------------------------------------------------------

DR         Пики         RMS           Продолжительность трека
--------------------------------------------------------------------------------
DR10      -1.17 дБ   -13.96 дБ      3:18 01-Do You Know the Way to San Jose?
DR10      -1.18 дБ   -14.24 дБ      3:24 02-Caravan
DR11      -1.18 дБ   -15.43 дБ      1:57 03-Fascinating Rhythm
DR11      -1.18 дБ   -14.03 дБ      2:11 04-Mountain Greenery
DR12      -1.18 дБ   -15.97 дБ      3:08 05-Bugler's Holiday
DR12      -1.18 дБ   -14.87 дБ      2:41 06-Alexander's Ragtime Band
DR12      -1.18 дБ   -16.90 дБ      3:13 07-Moon River
DR11      -1.17 дБ   -14.68 дБ      4:10 08-Just One of Those Things
DR10      -2.21 дБ   -18.32 дБ      3:40 09-Till There Was You
DR10      -1.18 дБ   -14.47 дБ      4:16 10-On a Clear Day (You Can See Forever)
--------------------------------------------------------------------------------

Количество треков: 10
Реальные значения DR: DR11

Частота:   96000 Гц
Каналов:   2
Разрядность:   24
Битрейт:   2545 кбит/с
Кодек:   FLAC
================================================================================
Any questions - support@pro-jazz.com. Есть вопросы - support@pro-jazz.com
14:41
319
Нет комментариев. Ваш будет первым!