Вы используете незарегистрированную версию компонента "Вкладки"!

Поиск

1957 Albert Mangelsdorff - The Jazz Sextet (2018) {Moosicus M13051} [LP 24-96]

1957 Albert Mangelsdorff - The Jazz Sextet (2018) {Moosicus M13051} [LP 24-96]
Стили:
Дата записи диска:
12 апреля 1957
Место записи:
Studio 10 / Sendesaal des NDR
Номер по каталогу:
Moosicus M13051
Носитель:
LP
Формат:
PCM
Тип рипа:
tracks+.cue
Контейнер:
FLAC (*.flac)
Количество каналов:
2.0
Разрядность/ЧД:
24/96
Битрейт аудио:
lossless
Время звучания:
00:46:20
Наличие сканов:
web
Страна-производитель диска (релиза):
Germany
Релизёр (источник):
M0p94ok
Лог проверки качества
foobar2000 1.3.16 / Dynamic Range Meter 1.1.1
log date: 2019-02-05 02:09:18

--------------------------------------------------------------------------------
Analyzed: Albert Mangelsdorff / The Jazz Sextet
--------------------------------------------------------------------------------

DR         Peak         RMS     Duration Track
--------------------------------------------------------------------------------
DR11      -3.19 dB   -18.53 dB      3:24 01-Love Is Here To Stay
DR14      -2.58 dB   -20.45 dB      4:07 02-These Foolish Things (Remind Me Of You)
DR12      -1.79 dB   -18.70 dB      2:20 03-Lullaby Of Birdland
DR11      -2.67 dB   -19.13 dB      3:25 04-Embraceable You
DR14      -0.50 dB   -17.63 dB      8:20 05-Scrapple From The Apple
DR12      -1.96 dB   -16.10 dB      4:04 06-What A Difference A Day Made
DR14      -0.50 dB   -16.95 dB     20:44 07-Yesterdays
--------------------------------------------------------------------------------

Number of tracks:  7
Official DR value: DR13

Samplerate:        96000 Hz
Channels:          2
Bits per sample:   24
Bitrate:           2615 kbps
Codec:             FLAC
================================================================================
Any questions - support@pro-jazz.com. Есть вопросы - support@pro-jazz.com
23:28
237
Нет комментариев. Ваш будет первым!